<?xml version="1.0" standalone="no"?>
<!DOCTYPE svg PUBLIC "-//W3C//DTD SVG 1.1//EN" "http://www.w3.org/Graphics/SVG/1.1/DTD/svg11.dtd" >
<svg xmlns="http://www.w3.org/2000/svg">
<metadata>
This is a custom SVG webfont generated by Font Squirrel.
Copyright   : Copyright c Fontype Freebies 2004 All rights reserved
Foundry     : Fontype Freebies
</metadata>
<defs>
<font id="webfont7RsMCAGT" horiz-adv-x="1122" >
<font-face units-per-em="2048" ascent="1638" descent="-410" />
<missing-glyph horiz-adv-x="550" />
<glyph unicode="&#xd;" horiz-adv-x="405" d="M109 27q0 18 1 68t3 118t3 142.5t3 141t2 115.5v66q0 18 2 50t4 44q12 0 44 4t44 0q20 -2 40.5 -8t37.5 -8q4 -18 6 -72.5t2 -126.5t-1 -152.5t-3 -153.5t-4 -127t-4 -73q-2 -18 -27.5 -25t-56.5 -8.5t-59.5 2t-36.5 3.5z" />
<glyph unicode=" "  horiz-adv-x="550" />
<glyph unicode="&#x09;" horiz-adv-x="550" />
<glyph unicode="&#xa0;" horiz-adv-x="550" />
<glyph unicode="!" horiz-adv-x="487" d="M129 152.5q8 35.5 33.5 63.5t64.5 34q55 8 89 -19.5t41.5 -67.5t-12 -82t-73.5 -65q-29 -12 -49 -6t-37 17q-39 20 -52 55t-5 70.5zM146 1323q-1 76 1 94t33 29.5t68 14.5t66.5 -1t31.5 -16q0 -18 -3 -90t-9 -171.5t-11.5 -212t-11.5 -210.5t-9 -169t-3 -87q0 -18 -3 -50 t-5 -42q-12 0 -29.5 -3t-30.5 1q-20 2 -24 6t-23 6q-4 18 -9 94t-10 180.5t-9 223t-6.5 223t-3.5 180.5z" />
<glyph unicode="&#x22;" horiz-adv-x="716" d="M167 1370q-1 55 3 105.5t16 78.5q41 4 74 3t64 -17l6 -53l-2 -2q0 -72 -6.5 -147.5t-10.5 -172.5q-12 -4 -30.5 -2t-28.5 6q-25 -8 -37 -1.5t-35 10.5q-4 33 -8 85t-5 107zM447.5 1370q-1.5 55 2 105.5t15.5 78.5q41 4 73.5 3t63.5 -17l8 -53l-2 -2q-2 -72 -7 -147.5 t-9 -172.5q-12 -4 -31.5 -2t-30.5 6q-23 -8 -35 -1.5t-34 10.5q-4 33 -8 85t-5.5 107z" />
<glyph unicode="#" d="M95 394.5q1 25.5 14 78.5q8 10 29.5 16.5t49 9.5t57 4t56.5 1l14 88q8 49 19 102h-160q-16 23 -15 48.5t15 78.5q8 10 28.5 16.5t48.5 9.5t57.5 4t56.5 1l29 146q13 65 24 92q10 8 31.5 12t45 5t41 -1t19.5 -4q2 -16 -8 -83l-27 -165h152l29 145q13 63 24 91 q10 8 31.5 12t45 5t42 -1t20.5 -4h-2q2 -16 -8 -84t-27 -166q59 -2 108.5 -3t72.5 -5q6 -8 6 -29.5t-4 -45.5t-10.5 -41t-8.5 -19q-14 -4 -65.5 -6.5t-122.5 -4.5q-10 -49 -18.5 -98t-18.5 -96q59 -2 106.5 -3t69.5 -5q6 -8 6 -30t-3 -45.5t-9 -41t-8 -19.5q-14 -4 -66.5 -6 t-124.5 -4q-16 -86 -26.5 -147.5t-12.5 -79.5q-29 -23 -54.5 -27t-76.5 0q-10 6 -11 34t2 64.5t10 77.5l14 76q-39 -2 -77 -2h-75l-26.5 -145.5t-12.5 -77.5q-29 -23 -54.5 -27t-76.5 0q-10 6 -11 33t2 63.5t10 77.5l13 76h-163q-17 23 -16 48.5zM459 506h149l15 88 q8 49 18 102q-37 -2 -74 -2h-73l-17 -94q-8 -47 -18 -94z" />
<glyph unicode="$" horiz-adv-x="1214" d="M240 309q6 23 10 52.5t10 59.5t15.5 58.5t25.5 48.5l31 -30q14 -18 36.5 -38t48 -36t51.5 -26.5t46 -10.5q127 -4 202 38t72 110q-2 29 -25.5 48t-39.5 29q-37 20 -82 34l-90 26q-45 12 -89 29.5t-77 48t-53.5 79t-20.5 121.5q0 66 24.5 120t66.5 97t95.5 75t112.5 50 q-2 20 -2 49t2 57.5t6.5 54.5t12.5 44q41 4 72.5 4t62.5 -16l8 -51l-2 -2q0 -25 -1 -62t-3 -51q74 4 129 -16q12 -4 30.5 -11.5t28.5 -15.5q8 -27 -2 -46.5t-14 -45.5q-4 -4 -6 -18l-4 -27q-2 -14 -3 -26.5t-5 -12.5q-20 -4 -43 3t-43 9q-45 4 -97.5 3t-101.5 -16.5t-89 -48 t-59 -89.5l-2 -7q2 -25 15.5 -46t32 -36.5t40 -25.5t39.5 -12q45 -6 92.5 -18.5t88.5 -28t74.5 -32t52.5 -34.5q33 -31 40 -59.5t15 -75.5q12 -74 -5.5 -132.5t-54 -101.5t-88 -71.5t-106.5 -47.5q-4 -33 -7 -85l-7 -121q-10 -4 -30 -2t-30 6q-23 -8 -35 -2t-37 10 q-2 12 -3 34.5t-3 46t-3 46t-1 37.5h-67q-72 4 -135.5 33.5t-122.5 72.5z" />
<glyph unicode="%" horiz-adv-x="1443" d="M17 1007.5q-3 110.5 39 218t126 173.5q16 14 36 26.5t40 22.5q33 16 64 16q43 4 87 -7t83 -46q61 -55 91.5 -134t35 -166t-18 -173t-67 -152.5t-108 -106.5t-142.5 -34q-16 2 -31.5 7t-32.5 12q-98 43 -148.5 138t-53.5 205.5zM168 1036q0 -35 4 -71.5t14 -67.5 q23 -59 71 -74.5t96 11t85 95t37 179.5q0 90 -37 146.5t-87 63.5t-99 -42t-74 -166q-4 -16 -7 -36t-3 -38zM283 16q12 31 45 105l79 176l102 223l117 245l119 243q59 119 112.5 215t95.5 161.5t67 85.5q55 14 108.5 4t71.5 -47q-166 -256 -294 -528l-263 -547l-38 -74 l-41 -82l-48 -98l-59 -123q-12 2 -39 5.5t-54.5 7.5t-51 11t-29.5 17zM824 344q-3 111 39 218.5t126 172.5q16 14 35.5 27.5t38.5 21.5q37 16 63 17q43 4 88.5 -7.5t83.5 -45.5q61 -53 92 -133t35.5 -166.5t-18.5 -172.5t-67 -152.5t-107.5 -106.5t-142.5 -33q-29 2 -64 16 q-98 43 -148.5 138t-53.5 206zM973 373q0 -35 5 -72t15 -68q23 -59 71 -74.5t96 11.5t85 95.5t37 178.5q0 90 -38 146.5t-87 64t-99 -42t-75 -166.5q-4 -16 -7 -34.5t-3 -38.5z" />
<glyph unicode="&#x26;" horiz-adv-x="1433" d="M135 350q0 80 12.5 140.5t36 109.5t58 93t80.5 91q20 23 54 56.5l50 48.5q-8 20 -14 29l-36 49t-26 53q-23 57 -20 110q2 49 12 92.5t35 71.5q51 61 121.5 90t146.5 29t149.5 -26.5t135.5 -75.5q16 -14 26.5 -37t16.5 -46.5t8 -43t0 -25.5q-10 -53 -34.5 -102t-72.5 -78 l-2 -2l-43 -28l-51 -31l-53 -33q-27 -16 -47 -31l66 -85l104 -127l128 -152l138 -157q70 -77 137.5 -143.5t122.5 -111.5q-4 -12 -25.5 -23.5t-48 -23t-52 -19.5t-36.5 -12q-63 45 -117 95l-102 98q-61 -49 -130.5 -89.5t-144.5 -65t-152 -32.5t-148 8q-29 6 -70 22.5 t-63 39.5q-12 2 -25.5 13t-28 25.5t-25.5 30l-20 27.5q-51 80 -51 178zM331 349q-1 -52 21 -89q29 -49 73 -71.5t94 -23.5t103.5 13.5t101.5 38t88 52t62 55.5q-10 10 -10 11t13 -9l-102 120l-56 66l-32 36l-29 34q-17 20 -46 58l-84 110q-41 -39 -65 -72l-37 -49 q-23 -29 -45.5 -76t-35.5 -99.5t-14 -104.5zM498 1082.5q4 -33.5 19 -64.5t44 -49q68 27 129 69q33 23 60.5 55.5t27.5 71.5q0 59 -44 84t-103 17q-10 -2 -23.5 -6.5t-23.5 -8.5q-14 -12 -28.5 -19t-27.5 -24q-20 -25 -27 -58.5t-3 -67z" />
<glyph unicode="'" horiz-adv-x="401" d="M167 1370q-1 55 3 105.5t16 78.5q41 4 74 3t64 -17l6 -53l-2 -2q0 -72 -6.5 -147.5t-10.5 -172.5q-12 -4 -30.5 -2t-28.5 6q-25 -8 -37 -1.5t-35 10.5q-4 33 -8 85t-5 107z" />
<glyph unicode="(" horiz-adv-x="649" d="M88 764q2 133 27.5 275.5t87.5 260.5q23 43 58.5 93.5t77.5 100.5t86 94t81 75q16 8 40.5 1t46 -22.5t36 -34t12.5 -30.5q-2 -10 -18.5 -29.5l-36.5 -41.5l-41 -41q-20 -19 -29 -29q-37 -41 -70.5 -94.5t-62.5 -112t-48.5 -118.5t-27.5 -114q-10 -66 -13 -132t-3 -132 q0 -92 24.5 -194.5t66.5 -201.5t97.5 -188.5t114.5 -152.5q10 -27 1 -48.5t-27.5 -36.5t-43 -23.5t-47.5 -8.5q-12 4 -26.5 13.5t-26.5 19.5q-14 10 -27 22q-35 23 -60.5 58t-45.5 71l-46 87q-26 49 -48.5 101t-41 103.5t-24.5 89.5l-25 158q-6 41 -11 80t-5 80z" />
<glyph unicode=")" horiz-adv-x="649" d="M90 -29q2 10 18.5 29.5t37.5 40.5l41 40q19 19 28 30q37 39 72 93t62.5 112.5t47 119t25.5 113.5q18 131 18 264q0 92 -24.5 194.5t-66.5 202t-97 188.5t-115 152q-10 27 -2 48.5t27.5 37t44 23.5t47.5 8q12 -4 25.5 -13t25.5 -20l27 -22q35 -25 61.5 -58.5t46.5 -70.5 l46 -86q26 -49 48.5 -101.5t41 -103.5t24.5 -90l25 -158q6 -41 10 -80t4 -78l2 -2q0 -135 -25.5 -277t-87.5 -261q-23 -43 -58.5 -93.5t-77.5 -100.5t-86 -94t-81 -75q-16 -8 -40.5 -1t-46 22.5t-37 35t-11.5 31.5z" />
<glyph unicode="*" horiz-adv-x="684" d="M82 1290q10 29 24 51q12 18 33 33l41 -16v2l2 -4l-2 2v-2q18 -10 42 -26l59 -38q4 141 16 189q14 2 27.5 3t27.5 1q23 -4 45 -15l6 -45v-2q0 -20 -1 -47.5t-3 -72.5q59 35 101.5 55t64.5 24q8 -10 16.5 -22t14.5 -25q10 -25 10 -47l-33 -28h-2h-2l-50 -29l-77 -43l98 -63 q42 -28 72 -46q-2 -6 -5 -10t-7 -8l-8 -6q-4 -18 -10.5 -24.5t-16.5 -18.5q-6 -4 -10 -11q-23 10 -63 32l-99 54q-4 -61 -5 -107t-3 -81q-6 -2 -18 2l-11 4q-23 -4 -34 -2l-13 4q-6 2 -16 6q-4 25 -5 72t-5 115l-93 -49l-67 -37q-4 4 -8 18l-2 10q-10 10 -12.5 16.5 t-6.5 12.5q-2 8 -2 14.5t-4 16.5q16 14 49 36l80 52q-108 69 -135 100z" />
<glyph unicode="+" d="M79 568q-3 36 1 89q8 14 47 20.5t86 8.5t90 2h62q14 0 35.5 1t50.5 1q2 55 5 111.5t6 104.5t6 86t7 57q8 8 32.5 12t51.5 5t48.5 -1t23.5 -4q2 -10 3 -44t1 -84t-2 -113l-4 -130q55 0 111.5 -1t105.5 -2t88 -3t57 -4q8 -8 12.5 -32.5t4.5 -51.5t-2 -48.5t-5 -23.5 q-10 -4 -44.5 -6t-86 -3t-115 -2t-132.5 -1q-4 -125 -8.5 -223.5t-6.5 -124.5q-23 -23 -59.5 -26t-89.5 -1q-12 8 -17.5 48t-5.5 87t3 90.5t3 61.5v86h-338q-22 22 -25 58z" />
<glyph unicode="," horiz-adv-x="499" d="M53 -131q23 23 42.5 76t34.5 112l30 111q14 51 26 70q16 12 43 13t51.5 -4t45 -12.5t24.5 -11.5q16 -43 -4 -100t-54 -114.5t-72 -104.5l-56 -68q-20 4 -32.5 0t-35.5 6q-14 6 -34.5 10.5t-8.5 16.5z" />
<glyph unicode="-" horiz-adv-x="802" d="M79 618.5q-3 36.5 1 90.5q8 14 47 20t86 7t90 1h62q35 0 77 2l88 4q45 2 87 1t77 -5q8 -8 12.5 -32.5t4.5 -51t-2 -48t-4 -23.5q-14 -4 -59.5 -8.5t-105 -6.5t-127 -4t-129 -3t-109.5 -2t-71 -1q-22 23 -25 59.5z" />
<glyph unicode="." horiz-adv-x="499" d="M129 152.5q8 35.5 33.5 63.5t64.5 34q55 8 89 -19.5t41.5 -67.5t-12 -82t-73.5 -65q-29 -12 -49 -6t-37 17q-39 20 -52 55t-5 70.5z" />
<glyph unicode="/" horiz-adv-x="942" d="M0 16q12 31 45 105l79 176l102 223l117 245l120 243q59 119 112.5 215t95.5 161.5t66 85.5q55 14 108.5 4t72.5 -47q-166 -256 -294 -528l-264 -547l-37 -74l-42 -82l-50 -98l-59 -123q-12 2 -37.5 5.5l-54.5 7.5t-51.5 11t-28.5 17z" />
<glyph unicode="0" horiz-adv-x="1073" d="M18 645q-2 86 13.5 183.5t48.5 187.5t83 167t118 122q23 18 63.5 39.5t88.5 37t97.5 20.5t87.5 -5q12 2 34 -1t45.5 -10.5t45 -15.5t31.5 -16q61 -53 108.5 -120t75.5 -149q12 -35 22.5 -79.5t18 -92t10.5 -93.5t3 -85q0 -131 -33 -267t-97.5 -246.5t-159.5 -181.5 t-218 -71q-70 0 -137.5 20.5t-126.5 63.5q-57 41 -89 87t-65 112l-2 2q-20 37 -32.5 87t-19.5 103.5t-10.5 106.5t-3.5 94zM201 686q-6 -92 4 -182t49 -170q37 -80 108.5 -112t145.5 -21q86 12 138 57t95 133q33 66 51.5 152t21.5 177t-11.5 180t-48 157.5t-89 109.5 t-135.5 39q-80 -4 -139 -50t-99 -119.5t-62.5 -166t-28.5 -184.5z" />
<glyph unicode="1" horiz-adv-x="604" d="M53 1139q2 16 14.5 31.5t30 28.5t36 23.5t34.5 18.5l135 74q78 43 143 65q29 8 63 3t42 -7q-16 -102 -26.5 -183t-15.5 -150.5t-6 -132t0 -129t2 -143.5t3 -173l4 -436q-10 -8 -25 -15q-12 -4 -28.5 -8t-38.5 0q-6 0 -24 3l-39 7q-22 4 -40 9.5t-24 5.5q-6 47 -9 110.5 t-3 131t1 132t3 113.5h2q4 45 5 81t0 70l-2 69q-1 36 1 81q2 61 7 140t7 145q-49 -29 -94 -51l-72 -37q-29 12 -47.5 44t-38.5 79z" />
<glyph unicode="2" horiz-adv-x="1124" d="M37 127q10 45 33 80q70 66 146.5 122t148.5 122l141 131q80 76 151.5 159.5t121.5 173t50 172.5q0 27 -12 50q-23 43 -64.5 56t-86.5 13v-2q-27 0 -77 -4t-116.5 -25.5t-147.5 -65.5t-169 -124q-10 6 -21.5 19.5t-22.5 28.5l-22 31q-10 15 -16 23q0 25 13 49.5t33.5 47 t43.5 41.5l41 35q16 14 33.5 27l35.5 26q61 43 147.5 70.5t176.5 31.5t173 -19.5t138 -82.5q37 -41 54.5 -85t31.5 -95q27 -96 4.5 -187.5t-74 -172.5t-119 -152.5t-132.5 -126.5q-78 -66 -149.5 -135.5t-137.5 -145.5q35 0 67.5 3t67.5 3q98 0 214 -5t214 11 q20 -10 16.5 -25.5t6.5 -35.5q0 -23 3 -45.5t3 -44t-5 -41t-24 -33.5q-43 -4 -90 -3t-90 3q-53 2 -117.5 4t-120.5 6q-16 2 -34.5 -2t-34.5 -2q-45 4 -98.5 3t-107.5 -3l-106 -4q-52 -2 -96 -2q-28 82 -18 127z" />
<glyph unicode="3" horiz-adv-x="1157" d="M33 174q0 4 2 18.5t4 31t4 29.5t4 17q12 37 24.5 54.5t24.5 40.5q12 -4 46 -24l78 -44q44 -25 91 -47.5t88 -32.5q86 -33 167 -24.5t145.5 43t109.5 89t60.5 114t-3 116.5t-79.5 100q-4 2 -6 4.5t-7 2.5q-27 23 -68.5 35t-88.5 15t-92 0t-76 -10q-6 -2 -24 -2h-36h-35 h-24q-4 0 -4 26t2 56.5t3 57t-3 30.5q8 2 21.5 3t28.5 1h30q14 0 22 3q45 12 116 33.5t137.5 52t113.5 72.5t47 95q0 33 -20.5 53.5t-49.5 33.5q-47 18 -103 21t-103 -7q-12 -4 -31 -6t-38 -5t-36.5 -6.5t-25.5 -7.5q-23 -8 -40 -15l-34 -14l-34 -15l-40 -17l-49 -22 l-53 -23q-25 -10 -39.5 13.5t-22.5 57t-11 65.5t-1 38q31 20 74 41.5t87 41t83 34t61 20.5q47 14 96 21.5t103 3.5l2 2q59 -6 117.5 -18.5t107.5 -38t89 -66.5t63 -101q20 -51 21 -90t-11 -88q-10 -39 -36 -71.5t-58.5 -58t-69.5 -47t-70 -38.5q63 -18 110.5 -41.5 t83.5 -54.5t58.5 -72t36.5 -96q16 -213 -87 -357.5t-316 -191.5q-63 -12 -119 -10q-20 0 -40 2l-40 4q-53 4 -128 31.5t-144 58.5q-82 37 -166 80z" />
<glyph unicode="4" horiz-adv-x="1132" d="M48 378.5q-1 24.5 15 63.5l16 32q7 15 17 30q39 61 87 128l98 134l98 134l94 126q43 55 76 102l64 94l67 98l82 120q27 8 55.5 9t53 -2t42 -7t21.5 -4q-8 -231 -8 -459.5t-4 -460.5q27 4 58.5 7t63.5 1q18 0 27.5 -12t12.5 -29.5t1 -37t-6 -33.5l-20 -78l-141 -6l-3 -45 l-10 -281q-6 -6 -14 -12q-8 -4 -20.5 -7t-34.5 1q-6 -2 -24.5 2t-39 9t-39 9t-24.5 4q-10 51 -9.5 135t5.5 174l-117 -4q-66 -2 -126 -2h-124l-260 2q-14 8 -23 27q-6 14 -7 38.5zM322 506q2 -6 21 -10t44 -7.5t46 -3.5h26q47 4 114.5 6.5t139.5 6.5q2 25 2 47v39h2 q12 178 12 360q0 43 3 87t5 89q-53 -82 -112 -165l-116 -162l-106 -153q-48 -73 -81 -134z" />
<glyph unicode="5" horiz-adv-x="1075" d="M33 182q-6 8 2 22.5t20.5 28t24.5 23.5t16 10q10 12 16.5 21.5t12.5 13.5t16.5 6t28.5 0q33 -35 69.5 -55.5t70.5 -31.5t60.5 -15t39.5 -4h63q47 0 97.5 11t91.5 36q59 35 104 100.5t45 136.5q0 37 -10 72t-39 66q-35 37 -97.5 53t-107.5 20v-2q-74 4 -158 -15.5 t-149 -45.5q-4 -2 -20.5 -2t-26.5 -4q-25 -6 -46.5 32.5t-17.5 85.5q10 176 12.5 298t5.5 200t12 116t34 44q84 -8 185 -2t183 8q31 0 70 1t80 1t80 -2t69 -4q25 -14 34 -27.5t11.5 -28t0 -27.5t-2.5 -28q2 -43 -4 -64.5t-12 -29.5q-8 -8 -18 -6h-55q-40 0 -94 1t-113.5 1 t-111.5 -1t-90 -3t-48 -6q-8 -4 -8.5 -15.5t-2.5 -21.5q-10 -66 -12 -145.5t-4 -145.5l10 -14q70 20 141.5 29.5t141 -1t135.5 -43t121 -96.5q51 -57 78.5 -122.5t27.5 -141.5q8 -31 3 -71t-16 -75.5t-22.5 -64.5t-15.5 -37q-20 -41 -52 -73.5t-69 -59.5 q-47 -35 -109.5 -66.5t-121.5 -41.5q-43 -8 -103.5 -7.5t-123 11t-121 30t-94.5 49.5l-63 56q-31 28 -54 63z" />
<glyph unicode="6" horiz-adv-x="1150" d="M82 563l2 2q0 119 21.5 237t66.5 223t119 194.5t178 150.5q14 8 44 20.5t62.5 23.5t63.5 20l47 12q29 6 64.5 9t68.5 4t59.5 0t39.5 -3q27 0 40 -22.5t16 -50t-3 -52t-19 -33.5q-135 -2 -241.5 -23.5t-173.5 -80.5l-68 -66.5t-49.5 -61.5t-34.5 -70t-27 -91q2 0 1 -10 t-1 -21.5t-1 -20.5t1 -7q27 29 62 50.5t69 37.5q45 23 109 33t131.5 2t133 -37t115.5 -83t78.5 -136t24.5 -199q-6 -135 -52 -238.5t-117.5 -173t-160.5 -105.5t-181.5 -35t-180.5 38t-156.5 111.5t-109.5 187t-41 264.5zM309 408q6 -57 25.5 -105.5t54.5 -79t83 -43 t110 1.5l56 13q28 6 54 22q45 27 80 70t59.5 94t37 105.5t12.5 105.5q0 68 -35 115t-89.5 71.5t-120 25.5t-126.5 -21.5t-110.5 -71.5t-71.5 -123q-12 -41 -17.5 -90t-1.5 -90z" />
<glyph unicode="7" horiz-adv-x="1073" d="M127 1217.5q-2 17.5 0 36t4 34.5q4 35 7 51.5t7 22.5q4 8 7 4l354 12q63 2 125 2h125l260 -2q14 -10 22 -26q6 -16 7.5 -40t-15.5 -63l-15 -31q-7 -15 -18 -30q-80 -123 -140 -248l-124 -258q-59 -127 -100 -245l-86 -251q-4 -8 -12.5 -35.5l-18.5 -58.5l-19 -57 q-9 -27 -14 -35q-18 -14 -47.5 -17t-58.5 0t-49.5 12t-20.5 21q0 63 24.5 157.5t65.5 204t92 227.5l103 226l98 201q47 92 82 154q-2 6 -21.5 10t-44 6t-46 3t-25.5 1q-86 -6 -166 -7t-166 -11q-41 -4 -68.5 -9t-68.5 -3q-18 0 -27.5 12t-11.5 29.5z" />
<glyph unicode="8" horiz-adv-x="1193" d="M85 496.5q42 111.5 146 205.5q16 16 37 32t41 24q-27 23 -50 56l-44 63q-59 88 -58 176t45 161.5t120.5 126t166.5 68.5l68 13q35 7 70 3q109 -12 178 -41.5t111 -67.5t61.5 -79t30.5 -74q27 -61 21.5 -101t-9.5 -79q-2 -23 -24.5 -52.5t-53.5 -60t-61.5 -57.5t-49.5 -41 q4 -8 51.5 -29.5t101.5 -64.5t99 -114.5t45 -180.5q0 -10 -2 -21.5t-2 -21.5l-2 -2q-6 -94 -58 -170t-129 -128t-169 -79t-178 -22v-2q-37 2 -80 8t-87 16t-85 26.5t-72 37.5q-16 10 -29.5 22t-29.5 23q-33 23 -55 51q-20 27 -35 57.5t-25 61.5q-47 145 -5 256.5zM293 371 q-10 -86 33 -142.5t113.5 -83t155.5 -23.5t158.5 34.5t124 92t50.5 150.5q0 57 -34 102.5t-84 76t-108.5 48t-107.5 19.5q-68 4 -113 -21.5t-94 -66.5q-43 -35 -65.5 -83t-28.5 -103zM338 1012.5q8 -66.5 92 -125.5q47 -18 78 -17.5t82 4.5q35 2 78 20.5t80.5 46.5 t64.5 63.5t29 74.5q0 12 -3 30.5t-10.5 37t-18.5 34t-24 21.5q-33 29 -71.5 41t-81.5 14l-2 -2q-78 6 -150.5 -28.5t-111.5 -91t-31 -123z" />
<glyph unicode="9" horiz-adv-x="1150" d="M84 907q8 178 85 299t187.5 181.5t237.5 60.5t234.5 -64.5t179 -194.5t71.5 -329l-2 -2q0 -117 -21.5 -234.5t-66.5 -225t-118.5 -197.5t-178.5 -150q-14 -8 -44 -19.5t-61 -21.5l-62 -19q-30 -9 -46 -11q-29 -6 -64.5 -9.5t-69.5 -5.5t-60.5 -2t-38.5 4q-25 2 -38 23.5 t-16.5 48.5t3 51.5t18.5 32.5q133 2 240.5 21.5t173.5 78.5q39 35 67.5 67t49 67.5t35 76.5t26.5 92q-2 0 -2 9.5t1 20.5t1 21v9q-29 -29 -62.5 -49.5t-68.5 -36.5q-45 -23 -108.5 -32t-130 -2t-132 34.5t-116 80t-80 133t-23.5 193.5zM284 943q-5 -54 1 -103q8 -68 48 -111 t96 -63.5t121.5 -18.5t124 28.5t101.5 77t55 124.5q8 41 8.5 88t-10.5 88q-12 55 -37.5 101t-64.5 74.5t-88 38t-109 -9.5l-56 -16q-28 -8 -50 -24q-41 -29 -70.5 -73t-47 -95.5t-22.5 -105.5z" />
<glyph unicode=":" horiz-adv-x="499" d="M129 152.5q8 35.5 33.5 63.5t64.5 34q55 8 89 -19.5t41.5 -67.5t-12 -82t-73.5 -65q-29 -12 -49 -6t-37 17q-39 20 -52 55t-5 70.5zM139 734q8 36 34 63.5t65 33.5q55 8 88.5 -18.5t41 -67t-12 -84t-72.5 -65.5q-29 -12 -49.5 -6t-36.5 16q-39 20 -52.5 56t-5.5 72z" />
<glyph unicode=";" horiz-adv-x="499" d="M53 -131q23 23 42.5 76t34.5 112l30 111q14 51 26 70q16 12 43 13t51.5 -4t45 -12.5t24.5 -11.5q16 -43 -4 -100t-54 -114.5t-72 -104.5l-56 -68q-20 4 -32.5 0t-35.5 6q-14 6 -34.5 10.5t-8.5 16.5zM160 734q8 36 33.5 63.5t64.5 33.5q55 8 89 -18.5t41 -67t-12.5 -84 t-72.5 -65.5q-29 -12 -49.5 -6t-36.5 16q-39 20 -52 56t-5 72z" />
<glyph unicode="&#x3c;" d="M97 581.5q-3 49.5 7 92.5l448 214l447 214q25 12 52 2q-4 -37 -4 -82t-5 -80q-23 -10 -40 -21.5t-46 -27.5q-18 -12 -49 -27l-63 -28l-64 -28q-31 -13 -51 -24q-113 -51 -210 -103t-210 -101q156 -78 315.5 -145.5t313.5 -145.5l60 -32l25 -13l14 -8q7 -4 32 -17 l-35 -104q0 -37 -16 -74q-74 37 -151 71l-152 68q-117 53 -228 113l-225 117q-41 20 -81 37.5t-81 37.5q0 45 -3 94.5z" />
<glyph unicode="=" d="M79 404.5q-3 35.5 1 89.5q8 14 47 20t86 8t90 2h62q23 0 71.5 1t111.5 1h131q69 0 130 -1t110.5 -4t71.5 -5q8 -8 12.5 -32.5t4.5 -51t-2 -48.5t-5 -24q-14 -4 -80.5 -7t-158.5 -4t-198.5 -2t-201.5 -1h-164h-94q-22 23 -25 58.5zM79 732q-3 36 1 89q8 14 47 20.5t86 8.5 t90 2h62q23 0 71.5 1t111.5 1h131q69 0 130 -1t110.5 -4t71.5 -5q8 -8 12.5 -33t4.5 -51.5t-2 -48t-5 -23.5q-14 -4 -80.5 -7t-158.5 -4t-198.5 -2t-201.5 -1h-164h-94q-22 22 -25 58z" />
<glyph unicode="&#x3e;" d="M100 221q25 12 32 17l14 8q7 4 25 13l60 32q154 78 314 145.5t315 145.5q-113 49 -210 101t-210 103q-20 10 -52 24l-64 28l-64 28q-31 14 -49 27q-29 16 -45 27.5t-39 21.5q-4 35 -4 80t-4 82q27 10 51 -2l447 -214l448 -214q10 -43 7 -92.5t-3 -94.5q-41 -20 -81 -37.5 t-81 -37.5l-225 -117q-111 -59 -227 -113l-153 -68q-77 -34 -150 -71q-16 37 -17 74z" />
<glyph unicode="?" horiz-adv-x="989" d="M53 1221q39 70 101.5 120t137.5 80.5t157.5 43t162.5 5.5q63 -4 132 -30.5t108 -79.5q35 -47 54.5 -89t21.5 -100q4 -78 -26 -138t-76 -107t-102 -84l-108 -71q-51 -34 -90 -66.5t-51 -69.5q-4 -12 -6 -41t-2 -62.5t1 -64.5t1 -45q-6 -14 -32.5 -19.5t-58.5 -2.5 t-59.5 17.5t-37.5 41.5q-12 33 -14.5 78t5 90t22.5 86t36 65q25 31 62.5 60.5t79.5 57.5l83 54l76 49q31 20 64.5 53t50 70t6 74t-65.5 68q-41 23 -82 26.5t-86 -0.5q-94 -10 -170 -39.5t-139 -99.5q-16 -16 -28.5 -37.5t-28.5 -38.5q-12 -4 -27.5 14.5t-30 44t-25 51.5 t-16.5 36zM268 154.5q8 35.5 34 63.5t65 34q55 8 88.5 -19.5t41 -68.5t-12 -83t-72.5 -65q-31 -12 -50.5 -5t-35.5 18q-41 20 -53.5 55t-4.5 70.5z" />
<glyph unicode="@" horiz-adv-x="1517" d="M43 625q31 326 250 520q219 199 538 192q135 -4 247 -39.5t216 -117.5q4 -4 6.5 -5t6.5 -6q170 -147 147 -395q-25 -270 -203 -403l-32 -25q-14 -10 -31 -20.5t-37.5 -20.5t-50.5 -22q-31 -14 -61.5 -24.5t-60.5 -10.5t-54.5 17.5t-40.5 58.5q0 -2 -1 -1t-1 3 q-16 -4 -26.5 -7.5t-22 -6.5t-24.5 -7t-36 -8q-25 -4 -51.5 -9t-52.5 -5q-6 0 -9 -2q-61 2 -115.5 14t-97.5 53q-55 49 -49 125v10l2 21q4 45 36 81t78 61.5t99.5 42t98.5 22.5q47 6 94 5t100 5q0 23 2 39t2 33q4 33 -2 63q-10 45 -43 64.5t-74.5 21.5t-83.5 -9t-73 -28 q-35 -20 -61.5 -44.5t-51.5 -51.5q-4 4 -11 10t-15 15q-6 4 -12.5 9t-10.5 9l-6 6q43 82 118.5 135.5t158.5 68.5t160 -9.5t124 -100.5q29 -47 36 -114.5t3 -140t-15 -144.5l-20 -125q-4 -18 2 -26.5t12 -10.5q49 14 83 33.5t59 40.5q111 84 135 262q2 10 2 21.5t2 21.5 l2 33q4 53 -10 104t-43 99q-16 31 -36.5 58.5t-47.5 51.5l-27 20l-26 19q-66 41 -145 61.5t-171 22.5q-264 6 -442 -174q-172 -172 -197 -440q-23 -254 94 -418q127 -176 373 -182q14 0 55 4t91.5 11t97.5 16.5t74 19.5l77 30q45 18 90.5 42t84 48.5t61.5 49.5 q43 -10 55 -51q-23 -39 -64.5 -72t-91 -61.5t-100.5 -51.5l-92 -41q-27 -12 -74 -20t-96 -13.5t-91 -8.5t-60 -5q-10 0 -19.5 -1t-15.5 -1q-303 6 -463 209q-152 193 -125 496zM551 500q-4 -18 2 -35q8 -29 59.5 -40t110.5 -9t109.5 15t54.5 34q8 31 11 70.5t7 74.5 q-6 6 -13 8.5t-18 4.5h-12q-8 0 -12 2q-53 2 -92 -7.5t-90 -23.5l-11 -2l-12 -6q-23 -10 -55.5 -31.5t-38.5 -54.5z" />
<glyph unicode="A" horiz-adv-x="1218" d="M14 41q0 6 2 16.5t5.5 22.5t5.5 22.5t0 14.5q6 31 16 65.5t20 65.5q10 41 26 82l32 82l56 143l56 143l107 266q53 132 113 261q20 45 47 80q16 23 36.5 40t36.5 37q14 4 25.5 11.5t22.5 17.5l22 4h-2q41 0 68.5 -11t46 -26.5t30 -32t19.5 -26.5q25 -84 45 -167t45 -169 q45 -160 95 -314.5t108 -310.5l52 -141q26 -70 54 -137l-41 -35q-4 -2 -17 -8l-30 -13q-16 -7 -30.5 -14.5t-16.5 -9.5h-15q-9 0 -14 4q-4 0 -8 3t-8 5q-27 20 -51.5 67.5t-46 100.5t-39 105.5t-29.5 85.5q-6 14 -14 30l-78 -2q-9 -1 -18 0q-24 0 -52 3q-22 3 -40 3 q-15 0 -29 -2q-56 -7 -105 -7q-20 0 -39 1l-129 9l-31 -95q-19 -57 -42 -116.5t-46.5 -113.5t-44.5 -85h-31h-40q-20 0 -40 1t-32 5q-8 12 -14 15l-10 6q-4 2 -6.5 5t-2.5 13zM434 610q16 -4 23 -6q20 -4 64 -8t94.5 -7t97.5 -3t71 4l2 16l-19 81l-13 54q-6 25 -15 55 l-22 81l-41 139q-8 27 -17.5 64.5t-19.5 66.5q-33 -70 -59 -135l-52 -130q-25 -65 -47 -131z" />
<glyph unicode="B" horiz-adv-x="1232" d="M155 297q1 127 5 254q0 12 2 24.5t2 24.5v78q0 72 7 144.5t7 144.5q0 4 -1 31.5t-2 66.5t-2 83t-2 82t-2 65.5t-1 31.5q4 23 10 36t29 21q96 33 191.5 44.5t195.5 11.5q10 0 18.5 -2t18.5 -2q51 -6 100 -15.5t98 -23.5q23 -6 43 -17l41 -20l45 -21q23 -10 43 -22 q31 -18 68 -57t53 -72q12 -29 16.5 -60.5t4.5 -60.5q0 -49 -14.5 -86t-47.5 -76q-43 -53 -99 -92l-110 -78v-2q45 -18 92.5 -40.5t85 -52.5t65.5 -70t38 -93l4 -24l4 -25q1 -5 2 -11q0 -10 -4 -24q-4 -53 -24.5 -108.5t-59.5 -96.5q-86 -94 -196.5 -137t-233.5 -59 q-53 -6 -106 -9l-46 -2l-61 3l-66 5q-40 3 -80 9t-74 16.5t-48 28.5q-9 115 -9 231v23zM373 193q12 -4 34.5 -7.5t47 -5.5t48 -3t38.5 -1q33 0 67.5 1t67.5 5q59 10 123.5 45t101.5 82q51 62 51 125q0 18 -4 35q-18 80 -114 121q-33 14 -67 22.5t-69 8.5h-53 q-25 0 -62.5 -1.5t-77.5 -6.5t-75 -14t-53 -26q-3 -33 -3 -65v-16q1 -41 1 -82q0 -53 -1 -108.5t-1 -108.5zM389 852q0 -4 1 -10t1 -11q-2 -27 10 -50q10 -20 42 -20q5 0 12 1q9 -2 19 -2q16 0 37 4q34 6 56 22l4 -2q8 0 32 9.5t50 22.5l50 25l32 15q35 16 75 43t69 53 q57 54 57 111q0 13 -3 26q-15 71 -97 111q-68 35 -125.5 39t-130.5 4q-12 0 -32 -2t-40.5 -5t-38.5 -7t-29 -10q-12 -6 -21 -17l-20 -22q-8 -72 -9 -164t-1 -164z" />
<glyph unicode="C" horiz-adv-x="1302" d="M88 567q-1 22 -1 46q0 80 16 168q22 114 69 221.5t116.5 197.5t157.5 146q61 39 119 67.5t116 41.5q51 12 103 12q8 0 17 -1q61 -2 135 -24q41 -12 73.5 -23.5t67.5 -38.5q53 -41 92 -101t39 -128q-16 -14 -32 -35l-33 -41q-16 -20 -32.5 -38.5t-35.5 -28.5 q-41 82 -102.5 136t-153.5 68q-32 5 -62 6q-88 0 -158 -46q-93 -60 -155 -164l-55 -99q-27 -49 -45 -102q-25 -72 -34 -160q-3 -33 -3 -65q0 -54 9 -108q15 -85 58.5 -154.5t123.5 -106.5q75 -33 157 -33q24 0 48 2q110 12 196 68q20 12 53 37.5t65 55.5t57.5 60.5 t35.5 53.5q37 -4 66.5 -35t58.5 -51q-2 -25 -5 -41.5t-20 -34.5q-8 -27 -26.5 -53.5t-41 -51t-47 -46t-46.5 -38.5q-92 -66 -198 -99q-102 -33 -207 -33h-6q-108 1 -209 41t-181 126q-29 29 -46.5 57.5t-33.5 63.5l-22 44q-13 28 -23 58.5t-16.5 58.5t-2.5 44 q-6 18 -10 47.5t-6 52.5z" />
<glyph unicode="D" horiz-adv-x="1376" d="M155 440q0 17 -1 34q0 85 5 167q5 98 11 166q-1 19 -1 48v32q1 51 2 111.5t5 124t9 116.5t12.5 90t17.5 43q57 23 108.5 38t101.5 24.5t103.5 12.5t114.5 3q92 0 184.5 -15.5t176.5 -54.5q80 -37 139 -101.5t97 -143t53 -166.5q10 -57 10 -113q0 -30 -3 -59 q-12 -135 -62 -251t-136 -220q-78 -92 -175.5 -163t-211.5 -110q-88 -31 -173 -40q-25 -3 -50 -2q-62 0 -127 16q-4 8 -27 10t-29 8q-25 0 -37 3t-21 9t-19.5 14.5t-32.5 18.5q-25 59 -34 153.5t-10 196.5zM376 855q0 -27 -1 -53q0 -52 2 -102q2 -74 4 -134t4 -89 q4 -53 9 -106.5t9 -106.5q51 -29 111 -29q16 0 33 3q78 10 152.5 47t139 90t105.5 102q68 86 110 195.5t46 220.5h2q0 129 -40 203.5t-109.5 110.5t-162.5 40q-21 1 -43 1q-75 0 -157 -11q-6 0 -30.5 -3t-53.5 -6t-52.5 -7t-27.5 -7q-8 -6 -14 -14q-12 -18 -20.5 -70.5 t-11.5 -123t-4 -151.5z" />
<glyph unicode="E" horiz-adv-x="1038" d="M142 346v30q0 60 3 124q4 80 10 157q4 56 3 101v35q0 14 2 58t5 103.5t6 127t5 126t2 101.5t-4 55q178 35 344 48t346 15q8 0 26.5 -3t37 -7t36 -9t27.5 -7q2 -20 3 -39t1 -37q-2 -12 0 -23q3 -18 3.5 -27.5t-3.5 -18.5q-4 -11 -18 -21q-4 -2 -24 -2h-42q-23 0 -42 -1 t-21 -5q-49 -6 -99.5 -10.5t-99.5 -10.5q-63 -6 -126.5 -7t-127.5 -13q-8 -25 -12 -74t-7 -105.5t-4 -108.5t-1 -81q12 -12 49 -14q12 -1 26 -1q27 0 60 3q49 4 105.5 10t107.5 9q31 2 57 2q18 0 34 -1q40 -2 56 -14q8 -10 13.5 -31.5t6.5 -44t-2 -44t-10 -32.5 q-25 -4 -91 -6l-137 -4q-71 -2 -130 -8t-72 -20l-94 -7q2 -31 4 -85t3 -112l2 -113q1 -54 3 -85q41 2 124 15.5t172 21.5q65 6 123 6q22 0 42 -1q76 -3 105 -30q0 -16 6 -24t10 -31q4 -27 4 -43t-20 -43q-16 -8 -64.5 -16t-112 -16.5t-136 -16.5t-140 -13t-122 -8.5 t-79.5 -3.5q-27 0 -51 7.5t-43 25.5q0 23 -7 40t-9 40q-4 23 -4 47.5t-4 46.5q-13 49 -14 123z" />
<glyph unicode="F" horiz-adv-x="980" d="M150 1313q2 18 12 25l22 16q8 0 14.5 3t14.5 5q94 27 175 35t179 8l2 2q16 0 32.5 2t33.5 2q8 0 46 3t84 3t88 -7t54 -26q4 -20 9.5 -27t5.5 -24q0 -29 4 -47q3 -12 2 -34v-23q-29 -8 -59.5 -9t-59.5 -3q-102 -10 -201.5 -14.5t-197.5 -26.5q-6 -4 -10.5 -43t-7.5 -87.5 t-5 -92.5t-2 -56q0 -6 -1 -18.5t-1 -25.5t3 -24.5t9 -11.5q31 -3 65 -3h17q43 1 87 5l87 8q43 4 84 4l2 3q27 0 51.5 -1.5t49.5 -11.5q8 -20 10 -32.5t1 -21.5t-4 -18.5t-3 -23.5q0 -12 -6.5 -30.5t-6.5 -28.5q-10 -10 -44.5 -13.5t-81 -4.5t-97.5 -1t-96 -2t-77 -9t-40 -22 q-2 -31 -4 -57q-2 -23 -3 -47.5t-1 -40.5q-4 -55 -6 -117.5t-5 -126t-8.5 -122t-15.5 -103.5q0 -6 -15.5 -7t-33.5 -2t-33.5 -2t-17.5 -7q-14 2 -23.5 0t-17.5 -4h-4q-7 0 -15 3q-10 3 -26 19q-2 35 -4 83t-3 99l-2 99q-1 47 -1 81q0 31 3 68l6 75q3 38 4 74v14q0 28 -3 50 q-2 8 -2 49t-1 98.5t-2 123t-2 123t-1 98.5v49q0 33 -4 64q-3 21 -3 43q0 11 1 22z" />
<glyph unicode="G" horiz-adv-x="1409" d="M95 660q1 85 14.5 166t35.5 132q51 117 130 217.5t180.5 170t219.5 101.5q75 20 153 20q46 0 94 -7q41 -6 86 -16t84 -27q20 -10 55 -25.5t67.5 -38t55 -50t18.5 -58.5q-2 -10 -9 -22.5t-15 -16.5q-4 -20 -29 -28.5t-43 -18.5q-10 -6 -18.5 -12t-18.5 -10q-86 68 -184 91 q-60 14 -118 14q-38 0 -75 -6q-94 -15 -180 -69.5t-147 -142.5q-41 -55 -65 -125t-42 -135q-16 -59 -23 -115q-4 -30 -4 -61q0 -27 2 -56q4 -57 37 -106l66 -94q33 -47 79 -70.5t99 -34.5q51 -10 107 -12h20q45 0 88 7q53 9 101.5 33t84.5 64q20 25 37 58t29 69.5t19.5 73.5 t9.5 68q-20 7 -56 7q-14 0 -30 -1q-57 -4 -118 -10l-115 -11q-14 -1 -25 -1q-35 0 -52 10q-10 6 -13 30.5t-2 54t4 56.5t5 37q24 13 48 13q9 0 19 -2q18 -4 37 -4q16 0 31 3q16 2 57.5 5t92.5 6t108.5 4t105.5 2q24 1 44.5 1t38.5 -1q35 -1 43 -5q4 -22 4 -55q0 -17 -1 -37 q-3 -59 -17.5 -128.5t-36 -140.5t-51.5 -122q-47 -82 -113 -133t-127.5 -80t-105.5 -39t-46 -10l-27 -8q-13 -4 -30 -6q-29 -4 -63.5 -4.5t-63.5 4.5q-104 10 -198.5 56t-166.5 122q-39 41 -66 84l-58 90q-31 45 -44 123q-12 72 -13 150v12z" />
<glyph unicode="H" horiz-adv-x="1271" d="M177 270q3 123 5 246q2 55 4 131t5.5 160t8.5 169t11 158.5t14 129t19 79.5q2 4 3 15l2 20q1 10 3 18.5t6 10.5q8 8 20.5 -1t20.5 1q12 2 29 2t39 -2q43 -4 69 -4q6 -39 3 -62.5t-7 -62.5l-6 -68q-4 -45 -8 -99t-7 -112.5t-4 -108.5q0 -13 -1 -24q0 -35 3 -63 q3 -37 13 -47q18 -4 50 -3t66.5 4t68.5 7t55 4q18 0 55 2t75.5 6t72.5 9.5t46 13.5q8 6 13 20q4 16 4 36v36q4 141 11 283.5t26 281.5q2 8 7 10t11 2t13.5 2.5t11.5 10.5q8 0 32.5 3t52 8t53.5 7q13 1 22 1t14 -1q10 -7 9 -17q0 -5 -2 -12q-7 -18 -3 -34q-14 -86 -22.5 -171 t-12.5 -171q-2 -27 -7 -51.5t-7 -51.5q-10 -139 -10.5 -280.5t-2.5 -282.5q-2 -47 -2 -96v-99q0 -37 2 -74q1 -13 1 -25q0 -25 -3 -50q-16 -8 -31.5 -13t-31.5 -12q-47 -10 -72.5 -12t-54.5 0q-12 45 -17.5 96.5t-5.5 103.5t2 103t2 99q0 29 2.5 57.5t-2.5 56.5q0 20 -14 35 q-111 -8 -234.5 -18.5t-230.5 -32.5q-14 -4 -19 -16.5t-5 -24.5q0 -72 -3.5 -140.5t-3.5 -140.5q0 -29 2.5 -55.5t2.5 -54.5v-63q0 -28 -5 -52q-10 0 -29 2l-39 4q-19 2 -35 4l-15 2q-29 0 -50.5 -1t-52.5 12q-6 91 -6 180q0 33 1 67z" />
<glyph unicode="I" horiz-adv-x="538" d="M147 154.5q0 68.5 3.5 142.5t7.5 142.5t4 117.5h2q12 178 12 361q0 66 6 131t6 131v115q0 60 13 114q28 21 48 21h4q22 -2 60 -7q2 -4 14.5 -6t28 -4t28.5 -2t17 -2q-9 -264 -9 -525v-51.5v-51.5q0 -260 -9 -525l-8 -223q-10 -6 -25 -13q-12 -4 -28 -7q-7 -1 -15 -1 q-10 0 -22 2q-6 0 -24.5 3t-39 8.5t-39 9.5t-24.5 4q-11 47 -11 115.5z" />
<glyph unicode="J" horiz-adv-x="909" d="M52 322q-2 25 -2 48q0 28 3 55q6 48 23 64q20 6 51 2t59.5 -11t50 -14t25.5 -7q-7 -41 -6 -77v-17q2 -39 10 -76t37 -56q61 -56 105 -55q14 0 27 5q52 24 84 106t46.5 200.5t18.5 234.5q3 93 3 170v38q-1 92 -1 121q0 10 -1 38.5t-3 66.5t-2 79t1 78t6 62.5t13 31.5 q14 10 40 13q19 2 39 3q7 0 13 -1q27 -1 51.5 -6t40.5 -11q4 -29 13.5 -60.5t9.5 -60.5v-205q0 -100 -2 -204q0 -16 -3 -31t-3 -31q0 -61 -2 -149t-13.5 -183.5t-36 -188.5t-68.5 -164t-112 -111q-54 -32 -127 -31q-19 0 -39 2q-49 6 -85.5 15t-69.5 26.5t-66 45t-71 70.5 q-25 18 -38.5 69t-18.5 106z" />
<glyph unicode="K" horiz-adv-x="1204" d="M142 174q1 74 5.5 154t9.5 153.5t5 122.5l2 2q12 178 12 359q0 66 6 131t6 131v116q0 59 13 115q29 20 50 20h2q22 -1 60 -8q2 -4 14.5 -6t28 -3t28.5 -1t17 -2q-6 -182 -10 -362.5t-6 -362.5q29 43 62.5 82t62.5 80l52 75l75 104l87 116l90 110.5t83 90.5t66 53 q20 8 50.5 6t57.5 -11t43 -22.5t12 -25.5q-8 -23 -47 -76l-91 -121l-110 -141l-108 -137q-49 -62 -80 -106t-28 -50l4 -10q8 -18 36.5 -57.5t62.5 -80.5l66 -77l50 -56q39 -43 85 -89l90 -94q44 -48 82 -98.5t60 -101.5q-4 -12 -20.5 -26.5t-38 -27.5l-42 -24.5t-32.5 -15.5 q-10 0 -26.5 1t-20.5 9q-8 12 -14.5 24.5t-16.5 22.5q-12 16 -48 59l-84 96l-103 114l-104 107q-48 48 -86 81t-52 33q-33 -23 -65.5 -68t-61.5 -80v-98l-14 -256q-12 -8 -25 -14q-12 -4 -27.5 -7t-37.5 1q-6 -2 -24.5 2t-39 9t-39 10t-24.5 5q-9 43 -10 108v13z" />
<glyph unicode="L" horiz-adv-x="903" d="M129 0q0 14 2 66.5t4 113t4 111.5t2 67l-2 2q2 186 19 371l32 371q6 59 10.5 115.5t16.5 113.5q0 25 -1 34t0 12t3 4t6 10q2 0 32 -1t63.5 -2.5t62.5 -2.5t33 -1q20 -18 14 -53t-8 -61q-2 -41 -9 -129t-17.5 -197.5t-18.5 -230.5t-12 -228q-2 -53 -2.5 -100t2.5 -87 q4 -81 20 -112q51 0 110 4l116 9q58 4 115 5h12q49 0 93 -7l9 -11q16 -8 24 -37.5t8 -62.5t-9 -59.5t-29 -26.5q-16 -2 -31 0l-31 4q-59 -10 -124.5 -11t-127.5 -5q-35 -2 -77 -2t-85 1t-86 1t-75 -2q-4 4 -14.5 5t-21.5 1t-20.5 1t-11.5 7z" />
<glyph unicode="M" horiz-adv-x="1605" d="M156 2l-2 77q0 86 7 171q9 123 15 248q2 53 7 131t12.5 165l15.5 177t17.5 170t19.5 142.5t20 94.5q14 10 43 13.5t58.5 2.5t54.5 -4.5t33 -5.5q12 -10 19 -28.5t13 -40.5l12.5 -49.5t14.5 -48.5l61 -173q26 -76 64 -170l71 -181l74 -179q4 -6 8.5 -20.5t10.5 -30.5 q6 -18 14 -39q6 23 15 43q6 16 11 31.5t9 19.5l93 232l95 229l68 150l66 151q18 41 28 71.5t33 71.5q18 12 50 14h7l57 -7q32 -8 58.5 -22.5t32.5 -33.5q12 -6 8 -26q0 -8 -1 -17.5t1 -17.5q-2 -43 -4 -72t-3 -54.5t-1 -55t2 -72.5q0 -12 1 -39t1 -55.5t1 -56t1 -40.5 q6 -139 20.5 -281.5t24.5 -283.5l7 -84l7 -84q4 -35 10.5 -71.5t6.5 -73.5q-14 -6 -28.5 -10.5t-31.5 -8.5q-43 -8 -68.5 -8t-52.5 4q-35 88 -39 182.5t-14 186.5q-2 14 -5 68.5t-7 117.5q-4 61 -7 115.5t-7 71.5q2 18 0 36.5t-4 34.5q-4 37 -4.5 100.5t-4.5 116.5 q-10 -20 -13 -35.5t-7 -31.5t-4 -27l-6 -18q-49 -145 -106 -273l-118 -270q-4 -6 -16 -38t-29 -68l-28.5 -64t-18.5 -35q-4 -2 -11 -2t-17 -4q-12 -2 -26.5 -3t-29.5 -5l-50 -7q-22 -3 -26 1q-12 14 -26 42.5l-29 61.5q-16 35 -27.5 64.5t-19.5 46.5q-16 31 -43 102l-57 160 l-61 178l-60 176q-4 -68 -9 -141.5t-10 -138.5l-7 -115q-3 -49 -3 -70q-2 -70 -8 -139.5t-10 -140.5q-2 -29 -1 -56.5t1 -56.5q-2 -16 -2 -32v-29q-2 -12 -3 -24.5t-3 -22.5q-10 0 -28 2l-36 4l-35 4q-8 2 -16 2q-29 0 -48 -1t-48 9z" />
<glyph unicode="N" horiz-adv-x="1239" d="M159 276q3 123 5 246q0 55 3 131l6 160t8 169t11.5 158.5t14.5 129t18 80.5v6l4 4q8 8 20.5 -1t18.5 -1q15 2 36 2q15 0 34 -1q43 -3 70 -3l241 -425l246 -421q2 27 3 61l2 67q1 32 1 57.5t-2 35.5q2 2 4 15.5t2 29.5v31v18q4 16 4 36v36q4 141 11.5 283.5t25.5 281.5 q2 8 7 10.5t11.5 2.5t13.5 2t11 10q8 0 33 3t52.5 8t52.5 7q13 1 22 1t14 -1q10 -7 10 -17q0 -5 -3 -11q-7 -18 -3 -35q-14 -86 -22 -171t-12 -171q-2 -27 -7.5 -51.5t-7.5 -51.5q-10 -139 -10 -280.5t-2 -282.5q-2 -47 -2 -96v-98q0 -37 2 -75q1 -13 1 -25q0 -25 -3 -50 q-33 -16 -64 -24q-47 -12 -69.5 -14.5t-50.5 -0.5v4q-6 0 -7 -2q-33 37 -69.5 100.5t-72.5 134.5l-69 136q-33 66 -57 108l-63 111l-59 98l-52 90q-20 33 -38.5 80t-35.5 82q-2 -66 -3 -139l-2 -141q-1 -68 -1 -121v-80q1 -24 1 -47q0 -47 -3 -93q-4 -69 -4 -141 q0 -29 2 -55t2 -55v-63q0 -28 -4 -52q-10 0 -30 2l-39 4q-19 2 -34 4l-16 2q-29 0 -50 -1t-52 12q-6 91 -6 180q0 33 1 67z" />
<glyph unicode="O" horiz-adv-x="1396" d="M90 672v17q0 82 18 172q19 99 60 193.5t102.5 173.5t143.5 128q31 18 82 39.5t109.5 38t117.5 22.5q22 2 43 2q35 0 65 -6q14 2 42 -1t58 -10t55.5 -15.5t37.5 -16.5q78 -53 133 -124t94 -157q16 -37 28.5 -83t21 -95t12.5 -97t4 -87q0 -135 -41 -275.5t-120 -256 t-196.5 -188.5t-271.5 -73q-86 0 -168 20.5t-155 65.5q-35 20 -62 43t-48.5 47.5t-40.5 52t-40 62.5l-2 4q-25 37 -39 88.5t-23.5 107.5t-13.5 110.5t-6 97.5zM307 715q-3 -37 -3 -75q0 -60 8 -119q13 -95 63 -181q47 -84 136 -119q66 -26 134 -26q24 0 49 4q106 12 173 60 t120 140q39 70 63.5 162t28.5 191q1 19 1 37q0 79 -14 155q-17 94 -60 168t-113 117q-66 41 -161 41h-9q-102 -4 -177 -53.5t-125 -128t-79 -177t-35 -196.5z" />
<glyph unicode="P" horiz-adv-x="1120" d="M171 1158v26q0 27 1 59q2 47 6 89t13.5 72t23.5 36q20 10 31.5 12t36.5 2q29 0 61.5 7t61.5 7t58 3q18 2 35 2h23q47 -2 97.5 -6.5l93.5 -8.5q72 -8 131 -46t106 -87q49 -51 83 -112.5t44 -133.5q0 -8 2 -14t4 -14q1 -4 2 -11q0 -1 -3 -34q-1 -14 -3 -28.5t-2 -21.5 q-6 -59 -33.5 -113.5t-68.5 -100.5t-91 -82.5t-102 -61.5q-66 -31 -129 -44t-116 -17q-43 -3 -77 -4q-9 0 -17 1q-40 1 -58 -2q-2 0 -2 -28.5t1 -72.5t3 -96t3 -99.5t3 -82t4 -42.5q0 -4 1 -18.5t1 -30t-1 -29t-3 -15.5q-4 -18 -30.5 -26t-61.5 -8t-68.5 8t-48.5 20 q-4 59 -6 148.5t-2 190t-1 200.5t-1 184l-2 350q0 -8 -1 13.5t-2 59.5zM373 1116q0 -39 1 -78t1 -73v-136v-19v-29v-31q0 -16 2 -29q46 -6 86 -6q29 0 55 3q63 7 114.5 26.5t93.5 48t79 59.5q66 57 79 133q4 25 4 48q0 49 -19 93q-28 66 -93 112t-158 46h-53q-27 0 -55 -2 l-2 -2q-29 0 -58.5 -5t-58.5 -13q-12 -33 -15 -70t-3 -76z" />
<glyph unicode="Q" horiz-adv-x="1396" d="M90 672v17q0 82 18 172q19 99 60 193.5t102.5 173.5t143.5 128q31 18 82 39.5t109.5 38t117.5 22.5q22 2 43 2q35 0 65 -6q14 2 42 -1t58 -10t55.5 -15.5t37.5 -16.5q78 -53 133 -124t94 -157q16 -37 28.5 -83t21 -95t12.5 -97t4 -87q0 -78 -13.5 -157t-40 -155.5 t-64.5 -147t-89 -130.5l79 -85l75 -84l62 -73q28 -33 40 -51q0 -12 -15.5 -31.5t-36 -38t-37.5 -30.5t-20 -12q-10 6 -35 31l-63 66l-82 90l-94 103q-63 -41 -136 -64.5t-159 -23.5t-168 20.5t-155 65.5q-35 20 -62 43t-48.5 47.5t-40.5 52t-40 62.5l-2 4q-25 37 -39 88.5 t-23.5 107.5t-13.5 110.5t-6 97.5zM307 715q-3 -37 -3 -75q0 -60 8 -119q13 -95 63 -181q47 -84 136 -119q66 -26 134 -26q24 0 49 4q74 8 133 37l-119 135q-50 57 -67 73q2 33 26.5 58.5t65.5 58.5q14 2 42 -21.5t59.5 -57t63.5 -71.5l54 -65q20 27 35 53q39 70 63.5 162 t28.5 191q1 19 1 37q0 79 -14 155q-17 94 -60 168t-113 117q-66 41 -161 41h-9q-102 -4 -177 -53.5t-125 -128t-79 -177t-35 -196.5z" />
<glyph unicode="R" horiz-adv-x="1204" d="M178 1103q0 38 1 85t5 89t13.5 71.5t23.5 35.5q20 10 31.5 12.5t36.5 2.5q29 0 61.5 7t61.5 7t58 3q18 2 35 2q12 0 23 -1q47 -2 97.5 -6t93.5 -8q72 -8 131 -46t106 -87q49 -51 83 -112.5t44 -133.5q2 -8 4.5 -14t2.5 -15q2 -6 1 -18t-2.5 -26.5t-3.5 -29t-2 -20.5 q-6 -59 -34.5 -104t-71.5 -79t-98.5 -60.5t-112.5 -49.5q18 -16 47 -54l59 -80l61 -83q30 -41 48 -63q8 -8 10 -13l64 -75l62 -76q30 -37 52.5 -69t34.5 -52q-4 -10 -27.5 -17.5t-56.5 -13.5t-67.5 -9t-59.5 -3l-56 59l-50 55l-50 57l-59 67q-33 37 -69 85l-73 94l-67.5 83 t-56.5 53q-34 -3 -61 -3h-13q-31 1 -47 -1q-2 0 -2 -31t1 -79t2 -104t3 -107.5t3 -88.5t3 -47q0 -4 1 -18.5t1 -29.5t-1 -28.5t-3 -15.5q-4 -18 -30.5 -26.5t-61.5 -8.5t-68.5 8.5t-48.5 20.5q-4 59 -6 143t-2 176v188v179v350q0 -8 -2 13.5t-2 59.5zM379 1061q0 -39 1 -78 t1 -74v-26q0 -4 1 -4t1 -6v-25q0 -10 -1 -48t3 -63q60 -7 115 -7q88 0 163 19q120 30 185 99q50 54 50 122q0 63 -35 120q-36 57 -105.5 96t-161.5 39q-29 0 -40 2q-6 1 -16 1t-24 -1l-2 -2q-29 0 -58.5 -5.5t-58.5 -13.5q-12 -33 -15 -69.5t-3 -75.5z" />
<glyph unicode="S" horiz-adv-x="1214" d="M80 186q2 29 13 59.5t27.5 58.5t37.5 50l64 -50q34 -26 70 -47t76 -36.5t87 -15.5q10 0 20 -1q43 0 103 7q74 8 142 32.5t117 67.5q43 38 42 99v16q-4 45 -39 75.5t-72 49.5q-59 31 -126 49l-131 35q-65 16 -123 37.5t-103 59.5t-72 98.5t-27 154.5q0 92 45 170 t119 136.5t168 97t193 54.5q61 10 121 9q36 0 70 -3q93 -9 167 -44q4 -25 5 -53.5t-3 -53.5q-10 -16 -15 -42.5t-28 -47.5h2q-29 0 -55.5 6.5t-54.5 10.5q-57 6 -116 6q-22 0 -44 -1q-82 -3 -156 -27.5t-132 -75t-85 -134.5q4 -37 23.5 -69.5t47 -57t62.5 -41t72 -22.5 q43 -6 103.5 -18.5t123 -31t118.5 -42t89 -54.5q43 -37 53.5 -75.5t18.5 -92.5q5 -35 5 -67q0 -95 -45 -166q-60 -94 -163.5 -151.5t-228.5 -79.5q-106 -19 -202 -19h-34q-94 4 -181 41t-165 88q-5 17 -5 37q0 7 1 14z" />
<glyph unicode="T" horiz-adv-x="999" d="M23 1325q12 16 67 25.5t122 13.5t129 5t87 3q49 2 119.5 6t145.5 6t145.5 2t117.5 -4q12 -10 17.5 -38.5t6.5 -59.5v-20q0 -19 -1 -36q-2 -26 -6 -28q-14 -4 -50 -8t-85 -7l-111 -7q-61 -4 -127 -7q-2 -68 -4 -148l-4 -165q-2 -84 -3 -165t-1 -144q0 -80 2 -160l4 -160 q0 -27 3 -54.5t1 -53.5q-4 -27 -1 -54.5t-5 -52.5q-4 -2 -19.5 -7t-33 -9t-32.5 -8t-20 -4q-14 -6 -28 -6l-33 8q-31 14 -35 24q-16 35 -24.5 118t-9.5 193v55q0 85 2 179q3 125 8.5 240.5t11.5 213t10 152.5q-113 -4 -204 -6t-126 -4q-33 27 -35 69q-2 25 -2 57q0 21 1 46z " />
<glyph unicode="U" horiz-adv-x="1202" d="M117 563q0 182 6 367.5t35 365.5q29 20 65.5 23.5t71.5 13.5l51 -4q27 -2 33 -35q2 -10 -2 -44l-9 -75q-5 -42 -11.5 -80t-8.5 -57q-8 -63 -14 -153t-6 -185.5t8 -183.5t26 -147q23 -66 64 -113t94 -69q43 -17 92 -17q12 0 23 1q61 5 123 42q12 6 26.5 19.5t27.5 28.5 l27 30q13 14 21 26q20 31 30.5 81.5t15.5 100.5t5 90v48l4 127q2 53 3.5 112.5t3.5 102.5q0 27 1 47.5t1 38.5v40q0 22 2 52q0 6 -1 31.5t-1 55.5t1 54.5t5 28.5l63 6q10 1 19.5 1t17.5 -1q0 -2 16.5 -2t36 1t36 1t16.5 -2q3 -20 2 -40v-19q-2 -29 -2 -60 q0 -100 -3.5 -210.5t-9.5 -210.5q-1 -11 -1 -28q0 -25 2 -62q1 -18 1 -38q0 -46 -5 -102q-7 -80 -30.5 -177t-76.5 -200q-51 -98 -140.5 -145t-191.5 -52q-15 -1 -29 -1q-88 0 -177 26q-103 31 -181 86q-47 33 -80 89.5t-54.5 122t-31.5 132t-10 121.5z" />
<glyph unicode="V" horiz-adv-x="1136" d="M49 1368q10 12 36 18.5t56.5 9.5t58 1t42.5 -6q12 -12 20 -34t14.5 -47.5t11.5 -55t13 -56.5l30 -102l26 -92l27 -93q13 -47 32 -100l66 -206q32 -101 69 -204q2 -8 7 -21t9 -30q6 -18 11 -37l12 41l8 30.5t8 21.5q47 131 88 262t88 262l63 170q32 84 60 170 q16 49 26.5 84t31.5 82q16 14 47 15h7q27 0 55 -7q32 -8 57.5 -24.5t31.5 -39.5q-29 -98 -74 -205.5t-77 -205.5q-12 -39 -27.5 -76t-26.5 -76l-95 -332q-48 -166 -107 -327q-4 -8 -12.5 -32t-18.5 -49l-20 -48q-9 -23 -15 -29q-6 0 -36.5 -5t-66.5 -9t-67 -6q-10 -1 -17 -1 q-14 0 -16 3q-10 14 -20 41.5l-20.5 58.5t-18.5 59.5t-16 46.5q-20 47 -55 140l-72 208l-79 242l-74 243q-34 116 -55.5 208t-25.5 139z" />
<glyph unicode="W" horiz-adv-x="1617" d="M37 1319q10 14 33.5 21.5t50 10.5t50.5 1t36 -6q12 -14 19 -37t12 -49q4 -27 9 -54.5t11 -54.5q12 -55 22 -93l17 -72l17 -72q9 -38 24 -91l55 -200l56 -201q4 -8 7 -23.5t7 -31.5l9 34.5t7 24.5l70 258q35 129 74 258q18 63 38.5 125.5t36.5 126.5q8 29 22.5 45t29 24.5 t28 9.5t19.5 -1q7 1 12 0q32 0 52 -18q24 -22 32 -56q0 -4 1 -7t1 -5v-4l24 -102l21 -91q10 -45 23 -91l26 -99l55 -190l56 -189q4 -8 7 -24.5t7 -33.5q4 18 9 37t7 25l70 247l74 247l50 166l50 169q14 47 22.5 82t26.5 82q14 16 42 19h10l46 -8q28 -9 50 -27.5t28 -42.5 q-27 -98 -62.5 -202.5t-61.5 -203.5l-22 -73q-11 -37 -21 -76q-37 -164 -78 -316l-88 -311l-9.5 -29.5l-16.5 -50.5l-17 -50q-8 -24 -15 -32q-2 0 -10 -4l-18 -9l-21 -10q-10 -5 -16 -5q-10 -2 -27.5 -2t-35 2t-32 5t-16.5 9q-10 16 -17 44t-18 58q-8 29 -15 57.5t-13 47.5 q-14 37 -36 102.5t-46 149.5l-52 181q-28 97 -53 198l-2 -11q-33 -166 -75.5 -327.5t-90.5 -321.5q-2 -6 -9 -29.5t-16 -50.5l-18 -50q-8 -24 -14 -30q-4 0 -18.5 -15t-26.5 -17q-10 -2 -30.5 -2t-42 2t-39 6t-19.5 10q-10 16 -19 45l-16 57q-10 31 -16 58.5t-13 46.5 q-16 45 -43 133l-57 196l-61 225l-57 225q-26 108 -43 196t-19 135z" />
<glyph unicode="X" horiz-adv-x="1138" d="M-4 49q8 47 53 129t109 176l136 191l109 151l-78 151l-75 139l-71 138.5t-64 149.5q12 10 35 22l47 26l48 26q24 12 42 20l48 -102l54 -115l73 -142q40 -77 93 -153l43 44q25 26 53 61l59 76l66 87l69 89l64 81l57 66q26 29 44 43h5q20 0 44 -13q27 -15 51 -47 q6 -10 16.5 -18t20.5 -14l10 -6q-31 -31 -71 -80l-86 -109l-93 -123l-90 -123l-79 -109l-58 -81q35 -53 76 -108.5t85 -108.5l88 -101.5t85 -87.5q33 -31 61.5 -54t57.5 -42q20 -14 37 -24l34 -21q-18 -31 -47 -57.5t-61.5 -43t-64.5 -19.5t-54 12l-37 30l-19 16l-20 15 q-12 16 -29 32l-32 32l-36 31q-17 15 -30 30q-10 12 -35.5 38.5t-33.5 41.5l-68 86l-43 50q-25 28 -51 50q-10 -6 -33 -31.5t-50 -60.5l-59 -76q-31 -41 -55 -80l-53 -82l-49 -75l-40 -56q-17 -25 -30 -39q-12 0 -35.5 8.5t-49.5 19.5l-51 24z" />
<glyph unicode="Y" horiz-adv-x="1144" d="M18 1319q33 10 49.5 22.5t51.5 22.5l39 12q16 4 29.5 8.5t17.5 -0.5l20.5 -48t24.5 -54l130 -254q67 -125 150 -244h11q23 29 39 62l32 63l69 125l99 173l104 167q50 78 81 107q31 -4 53 -9.5t41.5 -15.5t38 -29.5t41.5 -50.5q-29 -59 -71 -115.5t-77 -111.5l-40 -67 l-51 -87l-56 -97l-56 -99l-133 -242q-4 -16 -6 -54t-2 -54l6 -179q0 -29 2 -67.5t3 -77.5q1 -19 1 -36.5t-1 -33.5q-1 -31 -5 -41q-10 -10 -44 -17t-71 -9q-19 -1 -36.5 -1t-32.5 1q-31 2 -33 12l-2 61q-2 61 -2 121q0 74 3 146q1 26 1 51q0 101 -16 190l-58 86l-48 78 l-69 116l-78 135q-40 71 -73 136.5t-54.5 117.5t-21.5 81z" />
<glyph unicode="Z" horiz-adv-x="1234" d="M41 78q0 16 3 35.5t13 54.5q8 31 53.5 96.5t109.5 147.5l139 172l147 173l130 147l87 97q25 27 48.5 59t62.5 73l-147 12q-75 6 -149 8q-37 1 -73.5 1t-72.5 -1q-71 -2 -132 -12q-33 -4 -63.5 -11.5t-65.5 -9.5q-2 12 -6 24l-8 21q-10 31 -4 47l-4 121q33 16 80 16.5 t83 4.5q12 2 68.5 4t133.5 3t167 1t172 -1t145.5 -4t90.5 -9q25 -2 47 -21.5t36 -49.5q14 -32 14 -72q0 -36 -18 -70l-47 -43q-43 -39 -104 -106l-131 -147l-143 -170l-140 -175l-123 -163q-55 -77 -88 -132q57 -10 107 -13q16 -1 33 0l65 2q47 2 98 7l101 8q98 8 187 10h16 q79 0 139 -18q6 -37 11 -63t7 -48q2 -20 -2 -38.5t-14 -47.5q-25 -4 -95.5 -4t-156.5 2q-45 0 -89 1t-82 2t-68 1h-44q-67 -3 -131 -3q-32 0 -64 1t-64 1q-64 0 -130 -3q-18 0 -34.5 -4t-32.5 -6q-14 0 -25.5 1t-22.5 9l-7 24q-3 10 -7 21q-6 21 -6 37z" />
<glyph unicode="[" horiz-adv-x="649" d="M141 6q0 10 1 83t3 176.5t5.5 223l6.5 223.5l5 176q2 73 2 83q8 131 7 262t9 262q4 51 8.5 86l7.5 56.5t5 33.5t2 19q35 0 60.5 -1t47.5 -2l47 -3q25 -1 60 -1q4 0 30.5 3.5t57.5 5.5t55.5 3t28.5 -3q-4 -25 -3 -42.5t4 -31.5l6 -30q3 -15 3 -36q-14 -4 -43 -4h-61h-64 q-31 0 -49 -2q-23 -315 -38 -630.5t-5 -632.5q2 -68 2 -136v-135q23 -2 57 -8l70 -12l82 -17q2 -8 6 -34.5t0 -36.5q4 -12 -7 -30.5t-28 -25.5q-43 0 -87 2l-89 5q-45 4 -98 12t-98 12q-10 35 -8.5 63.5t-0.5 63.5z" />
<glyph unicode="\" horiz-adv-x="942" d="M0 1427q18 37 71.5 47.5t108.5 -4.5q25 -20 67 -85.5t95 -162l113 -214.5l119 -243l117 -245l103 -223l78 -176l46 -105q-6 -10 -29 -17t-51.5 -11l-54 -7.5t-38.5 -5.5l-59 123l-49 98l-42 82l-38 74l-263 547q-128 272 -294 528z" />
<glyph unicode="]" horiz-adv-x="649" d="M141 -14q14 4 43 5t61 1h63q32 0 50 2q23 315 38.5 629.5t4.5 631.5q-2 68 -2 136v135q-23 2 -57.5 9t-69.5 13l-84 17q0 8 -4 34.5t0 34.5q-4 14 7.5 31.5t27.5 26.5q43 0 87 -2t89 -7q45 -2 97.5 -10t99.5 -12q10 -35 8 -63.5t0 -63.5q0 -10 -1 -83t-3 -177.5t-5 -223 t-6 -222.5l-5 -176q-2 -73 -2 -83q-8 -131 -7.5 -262t-9.5 -262q-4 -53 -8 -87t-7 -55.5t-5 -33.5t-2 -19q-35 0 -60.5 1.5t-48 2.5t-48.5 2t-60 1q-4 0 -31 -3.5t-56.5 -5.5t-55 -3t-27.5 3q4 25 3 41.5t-4 31.5l-7 30q-3 15 -3 35z" />
<glyph unicode="^" horiz-adv-x="1128" d="M162 913q10 12 14 22.5t10 22.5l51 94q26 46 58 93l29 40q16 24 35 48l38 47q18 23 35 39q4 6 19.5 21.5t19.5 21.5q12 -2 34.5 -1t48.5 2t48 1h35q16 -20 42 -59t38 -60l50 -77l54 -76q14 -23 25.5 -37.5t22.5 -26.5l24 -27l29 -34l22 -27q12 -14 21 -29 q-27 -16 -65 -25t-69 -5q-8 4 -29 28l-50 60l-61 75l-60 79q-29 38 -49 69l-29 43q-53 -53 -91 -117.5t-77 -120.5q-16 -23 -33.5 -58.5t-34.5 -55.5q-41 -2 -72.5 -0.5t-82.5 30.5z" />
<glyph unicode="_" horiz-adv-x="753" d="M-11 -313q-3 37 1 90q8 14 57 18t107.5 4t111.5 -1t72 -1h93q58 0 121.5 -2t121 -5t92.5 -7q8 -8 12 -32.5t4 -51.5t-2 -48.5t-4 -23.5q-14 -4 -70.5 -6t-134 -2t-166 2t-168 3t-140 2t-83.5 1q-22 23 -25 60z" />
<glyph unicode="`" horiz-adv-x="593" d="M74 1434q2 6 16 17t33.5 21.5t43 15.5t46.5 -1q20 -14 51 -44t62.5 -68t59.5 -84t42 -91q6 -18 -7 -23.5t-26 -15.5q-18 -16 -31.5 -16t-31.5 -8q-18 49 -54 84.5t-74 68.5l-74 67q-36 34 -56 77z" />
<glyph unicode="a" horiz-adv-x="864" d="M61 221v6v29q0 55 33 98t81 74t103.5 50.5t102.5 27.5t97 8t97 8q-1 22 -1 45q0 5 0.5 14.5t0.5 14.5q0 31 -10 61q-12 45 -46 64.5t-76 20.5h-6l-78 -11q-42 -12 -72 -33q-35 -23 -61.5 -52.5l-51.5 -59.5q-4 0 -15 9l-25 20l-24 22q-11 10 -16 10q37 96 115 161.5 t167 88.5q41 10 81 10l97 -14q89 -27 148 -115q37 -53 50.5 -129t15.5 -159q1 -24 1 -47q0 -59 -4 -116q-5 -81 -7 -143l-2 -2q0 -43 -3 -98t-3 -84q-29 -2 -55.5 -7t-55.5 -5q-10 20 -28.5 32.5t-20.5 36.5l-22 -7q-9 -3 -18 -7t-24 -8l-37 -10l-56 -13q-28 -6 -56 -6 q-4 0 -4 -2q-66 0 -128.5 12.5t-115.5 59.5q-68 57 -68 145zM244 239q0 -7 4 -18q10 -29 62 -38q36 -6 76 -6q18 0 36 1q59 4 108.5 18.5t51.5 30.5q4 35 5 78t1 78q-8 6 -24.5 5t-26.5 3q-55 0 -94.5 -10t-92.5 -29q-4 -2 -10 -3t-10 -5q-25 -10 -53.5 -34.5t-32.5 -53.5 v-17z" />
<glyph unicode="b" horiz-adv-x="952" d="M94 221q-1 35 0 70q0 70 2 139q4 104 10.5 209.5t6.5 210.5l2 2q0 53 3 104.5t3 104.5q0 23 -1 43t3 43q4 35 1 62.5t1 62.5q41 26 73 26q3 0 7 -1q35 -3 63 -1h19q8 0 16 -8q0 -23 -2 -72t-5 -111l-6 -129q-3 -67 -5 -126q-1 -40 -2 -72q0 -16 1 -30q1 -43 7 -58 q23 8 50.5 22.5t56 27t57 22.5t53.5 10h20q110 0 184 -42q81 -46 121.5 -119.5t45.5 -165.5v-22q0 -79 -26 -154q-30 -85 -90.5 -152.5t-148.5 -96.5q-43 -14 -94 -15h-14q-44 0 -85 5q-48 6 -87 17.5t-58 23.5q-12 -16 -18 -25.5t-10 -25.5q-31 0 -74 2t-63 14 q-15 101 -17 205zM279 217q0 -37 47 -48q25 -6 53 -6q27 0 57 5q63 10 128 41t100 82q23 31 35 65.5t12 73.5q0 74 -30 115t-76 56q-31 10 -67 11q-17 0 -35 -3q-56 -7 -112 -29q-20 -10 -51 -20.5t-47 -27.5q-8 -41 -11 -72.5t-3 -70.5v-172z" />
<glyph unicode="c" horiz-adv-x="890" d="M60 308q-1 10 0 21q0 84 37 171q42 98 136 182q156 137 367 143q12 1 23 1q29 0 58 -4q40 -5 77 -23q12 -18 14 -34.5t0 -33t-8 -35t-8 -39.5q-6 -25 -20.5 -29.5t-33 -1.5t-38 9t-35.5 2q-16 6 -49 2t-50 4q-78 -10 -137 -50t-96 -94.5t-49 -115.5q-5 -26 -5 -51 q0 -33 9 -62q16 -51 64.5 -84.5t129.5 -33.5q96 0 178.5 50t149.5 111q29 -12 46.5 -33.5t21.5 -74.5q-6 -23 -27.5 -47.5t-48.5 -46t-55.5 -39t-48.5 -27.5q-129 -68 -239 -70h-10q-103 0 -179 41q-79 43 -124 121t-50 171z" />
<glyph unicode="d" horiz-adv-x="958" d="M60 336q-2 20 -1 39q0 81 30 164q38 102 116 178q66 61 144.5 99t170.5 38h34q19 0 32 -4q29 -6 44 -11l44 -16q7 34 7 68q0 14 -1 28q-3 32 -3 63q0 16 1 32q2 68 2 138.5t10 135.5q4 23 5 42.5t-3 41.5l82 2h49q8 0 17 -2q8 -37 10 -128q1 -46 1 -95t-1 -101l-4 -203 q-2 -97 -2 -147q0 -78 3 -158.5t5 -163.5q1 -33 1 -66q0 -49 -2 -97q-3 -80 -15 -154q-10 -6 -24.5 -9t-25.5 -7q-49 -12 -71 -14q-3 0 -7 -1q-17 0 -24 10q-8 11 -8 36.5t-4 66.5l-33 -24q-14 -10 -27.5 -18.5t-29 -15.5t-35.5 -15q-8 -4 -22.5 -7.5l-30 -7.5t-30.5 -7 t-24 -5q-25 -7 -49 -7q-10 0 -19 1q-34 4 -69 12q-117 29 -175.5 109t-67.5 180zM236 410q-2 -14 -2 -27q0 -20 4 -38q6 -30 26 -58q35 -49 92 -60q14 -3 39 -2h28q46 2 96 12.5t90 31t48 50.5q6 27 11.5 72t6.5 95v25q0 37 -2 73q-3 47 -11 80q-27 18 -55 22q-18 3 -38 3 q-10 0 -20 -1q-57 -4 -111.5 -24.5t-98.5 -57.5t-71.5 -87t-31.5 -109z" />
<glyph unicode="e" horiz-adv-x="985" d="M63 395q0 90 31 170t86 150t138 116t171 55q20 2 40 2q67 0 129 -25q81 -32 135 -115q20 -33 32.5 -71t14.5 -77q2 -20 4 -45t-2 -45q-10 -45 -25 -84q-6 -16 -36.5 -27.5t-67.5 -17.5t-72 -9t-49 -5q-82 -8 -163 -11.5t-163 -5.5l-12 -8q-6 -23 0 -45q6 -53 39 -86 t76 -51.5t92 -25.5t90 -7q33 4 58.5 10t52 21.5t58.5 43t77 74.5q4 2 18 -16t30 -42l28 -45q13 -22 16 -26q-4 -12 -20.5 -27.5t-26.5 -23.5q-8 -8 -24.5 -22.5t-26.5 -20.5q-115 -70 -242 -87q-39 -5 -76 -5q-85 0 -160 28q-109 40 -179.5 140t-70.5 266zM256 504 q10 -12 27 -17q3 -1 16 -1h16q29 1 71 3.5l91 5.5t92 5t75 5t38 5q8 6 11 16.5t3 20.5q1 9 2 19q0 20 -6 43q-8 36 -22 59q-39 66 -105 77q-20 4 -40 4q-46 0 -92 -19q-67 -28 -118 -87t-59 -139z" />
<glyph unicode="f" horiz-adv-x="677" d="M41 827q10 16 60.5 22.5t103.5 8.5q2 63 11 126t27.5 121t50.5 110.5t81 93.5q43 35 81 45t91 14q41 2 75.5 2t64.5 -11t55.5 -36t45.5 -72q19 -44 20 -58q0 -17 -15 -40q-8 -2 -26 -5l-36 -6q-18 -3 -33.5 -5t-17.5 0q-12 2 -18.5 18t-12.5 27q0 23 -20.5 29t-46 2.5 t-51 -11.5t-37.5 -14q-27 -16 -45.5 -40t-29.5 -53.5t-17.5 -60t-10.5 -57.5l-12 -117q68 4 145 6q13 0 26 1q62 0 107 -9q8 -8 12.5 -32.5t4.5 -51t-2 -48t-4 -24.5q-12 -4 -41 -6t-69 -4t-88 -3t-97 -3q-3 -70 -3 -138q0 -34 1 -69q2 -102 2 -205q0 -53 -1 -94 q0 -14 -1 -28q0 -29 2 -60q0 -20 -3 -51t-3 -43q-6 0 -18.5 -1t-27 -2t-25.5 -2q-4 0 -7 -1q-6 0 -10 2q-20 2 -41 8t-37 8q-12 44 -12 95v22q3 63 6 119q2 109 5 214t3 214v8q-47 0 -83 -1t-52 -1q-23 23 -26 58q-2 22 -2 50q0 18 1 39z" />
<glyph unicode="g" horiz-adv-x="974" d="M60 318q-3 26 -3 52q0 64 20 132q28 94 86 172t141 127t185 49q59 0 114.5 -21.5t109.5 -50.5q6 18 13 33.5t11 34.5q11 5 23 5q6 0 12 -1q18 -4 31 -16l78 -17q-8 -98 -13.5 -192.5t-9.5 -192.5q-4 -41 -4 -85t-4 -87q2 -2 2 -6q0 -72 1 -146v-15q0 -67 -8 -134 q-9 -74 -37 -141.5t-83 -120.5q-47 -45 -104.5 -70.5t-119.5 -35.5q-37 -6 -76 -5q-25 0 -51 2q-65 6 -122 29q-23 8 -50.5 25.5t-53 40t-46 47t-28.5 47.5q20 35 52 57.5t60 48.5q23 -29 48.5 -57.5t55 -50t64.5 -33.5q26 -9 56 -9q10 0 20 1q137 14 190.5 93t53.5 206v2 q0 23 -2 46l-4 46q-43 -27 -89.5 -49.5t-94.5 -36.5t-98 -15h-5q-47 0 -94 17q-106 37 -161 111.5t-66 163.5zM246 436q-6 -34 -6 -63q0 -59 25 -94q38 -53 103 -66q23 -4 48 -4q44 0 93 13q77 22 138 65q12 23 26.5 67.5t24 95t9.5 94.5t-17 62q-37 43 -87 61 q-43 15 -86 14h-15q-51 -3 -100.5 -26.5t-84.5 -62.5q-29 -33 -46 -74t-25 -82z" />
<glyph unicode="h" horiz-adv-x="892" d="M106 1319q0 39 5 43q2 4 12 6t22.5 3t22.5 1t16 2q5 4 14 4t22 -4q26 -8 38 -8q2 -10 4 -62.5t3 -126t1 -159.5t1 -161t1 -128v-65q51 59 122 103t141 52q13 2 27 2q56 0 108 -28q63 -35 102 -131t42 -204q2 -65 2 -127q0 -41 -1 -81q0 -23 -1 -50.5t-4 -56t-9 -55.5 t-17 -45q-14 -2 -28.5 -3t-28.5 -5q-29 -10 -53.5 -6t-46.5 14q2 74 4 129t6 129q1 29 1 59v30q-1 46 -7 89q-16 100 -65 132q-34 22 -71 23q-15 0 -31 -4q-54 -13 -101.5 -59.5t-59.5 -99.5q-25 -104 -27 -210.5t-2 -211.5v-49q-16 0 -40.5 -2t-49 -2t-45 7t-26.5 26 q0 12 1 94t1 200.5t1 259t1 269.5q0 111 -2 202l-3.5 158.5t-1.5 106.5z" />
<glyph unicode="i" horiz-adv-x="405" d="M89 1023q-2 11 -2 22q0 30 14 60q19 42 73 64q18 8 33 8q9 0 16 -2q20 -7 37 -16q39 -20 52 -55q8 -22 9 -44q0 -14 -4 -27q-8 -36 -33.5 -63.5t-64.5 -33.5q-13 -2 -24 -2q-39 0 -65 21q-34 28 -41 68zM109 27q0 18 1 68t3 118t3 142.5t3 141t2 115.5v66q0 18 2 50t4 44 q12 0 44 4q16 2 27 2t17 -2q20 -2 40.5 -8t37.5 -8q4 -18 6 -72.5t2 -126.5t-1 -152.5t-3 -153.5t-4 -127t-4 -73q-2 -18 -27.5 -25t-56.5 -8q-8 0 -15 -1q-23 0 -45 3q-28 3 -36 3z" />
<glyph unicode="j" horiz-adv-x="536" d="M-222 -423q0 17 15 40q8 2 26 5l36 6q18 3 32.5 5t18.5 0q12 -2 18 -18t13 -27q0 -23 20 -28.5t46 -2.5t51.5 11t37.5 14q27 14 45.5 39t29.5 54.5t17 59t11 58.5q21 160 20 322v29q-2 177 -2 352q0 53 1 94v28q0 29 -1 60q0 18 3 50t3 44q6 0 18.5 1t27 2t25.5 2t17 -1 q20 -2 41 -8t37 -8q12 -44 12 -95q0 -11 -1 -22q-3 -63 -5 -119q-2 -109 -2 -214t-4 -214q-2 -80 -3 -169t-16.5 -173t-50 -160.5t-104.5 -132.5q-43 -35 -81 -46t-91 -15q-27 -1 -52 -1h-24q-35 1 -64.5 11t-55 36t-46.5 73q-19 44 -19 58zM181 1023q-2 11 -2 22 q0 30 15 60q19 42 72 64q18 8 33 8q9 0 16 -2q20 -7 37 -16q39 -20 52 -55q8 -22 9 -44q0 -14 -3 -27q-8 -36 -34 -63.5t-65 -33.5q-13 -2 -24 -2q-39 0 -65 21q-34 28 -41 68z" />
<glyph unicode="k" horiz-adv-x="937" d="M105 640q1 132 6 267q2 119 6 237t20 234q31 8 56 25h46q22 0 42 -19q6 -18 8 -76.5t2 -138t-1 -172t-3 -177.5t-3 -153.5t-1 -103.5q16 4 51 32l79 65l93 80l94 79q45 37 81 61.5t56 24.5q6 0 17.5 -8t25 -20.5t24.5 -29t15 -34.5q-4 -10 -41 -47l-85 -81l-92 -84 l-60 -54q16 -41 58 -94.5t93 -110.5l102 -111q50 -53 83 -92q10 -12 21 -22.5t17 -22.5q-4 -12 -20 -23.5t-27 -17.5q-10 -8 -27.5 -17t-31.5 -9q-55 0 -109.5 50t-106.5 114l-105 127q-52 62 -107 85q-35 -12 -62.5 -35.5t-37.5 -48.5l6 -223q0 -33 -7.5 -47t-21.5 -18 t-34.5 -1t-43.5 7q-18 4 -36.5 6t-30.5 18q-8 49 -8 99q0 29 3 57q5 50 4 99q0 28 -1 57q-5 116 -6 229v38z" />
<glyph unicode="l" horiz-adv-x="419" d="M117 529.5q0 33.5 1 71.5t1 99l2 195q2 117 7 234.5t22 234.5q27 8 55 25q27 0 46 1h2q19 0 38 -20q10 -31 10 -59q0 -168 -3 -334t-3 -332q0 -141 2 -280.5t2 -280.5q0 -33 -8 -48.5t-24 -18.5q-8 -2 -16.5 -1.5t-18.5 1.5q-19 3 -39 8q-18 4 -37 5t-31 17q-4 31 -5 72 q-1 20 -1 41t1 43l2 84v26q0 25 -1 45q-2 61 -3 99.5t-1 72z" />
<glyph unicode="m" horiz-adv-x="1323" d="M105 471v63q0 61 1 114q2 81 5.5 137.5t9.5 62.5q6 8 33.5 8t40.5 4q7 5 15 6q5 0 10 -2q15 -4 28 -4q8 -29 13 -77t7 -85q51 59 116 103.5t127 53.5q13 2 26 2q49 0 94 -28q57 -35 98 -131v-2q53 61 119.5 105.5t133.5 53.5q14 2 28 2q52 0 99 -28q60 -35 99 -133 q39 -96 42 -202q2 -64 2 -127q0 -42 -1 -82q0 -20 -2 -56t-6 -74t-11 -73t-18 -53q-14 -2 -26 -3t-25 -6q-14 -5 -26 -4q-14 0 -28 6l-48 21q2 143 12 293q1 22 1 44t-1 46q-2 47 -8 90q-16 100 -64 127q-20 12 -41 12q-27 0 -56 -20q-50 -35 -90 -125t-42 -225 q0 -20 -1 -54t-5 -69t-10 -68t-17 -51q-14 -2 -28.5 -3t-28.5 -5q-29 -10 -53.5 -6t-46.5 14q2 143 12 293q1 22 1 44t-1 46q-2 47 -8 90q-10 68 -33 102.5t-52.5 46t-61 1t-60.5 -34t-50.5 -56t-29.5 -69.5q-23 -104 -26 -210t-3 -210v-49q-16 0 -40.5 -3t-49 -2t-45 7 t-26.5 24q0 16 -1.5 79t-1.5 148t-1 181z" />
<glyph unicode="n" horiz-adv-x="888" d="M96 441q0 91 1 170t4 132.5t10 59.5q2 4 12 6t22.5 3t22.5 1t16 2q10 8 26.5 4t27.5 -4q10 -29 15 -62.5t5 -68.5q53 59 124 103t141 54q15 2 30 2q55 0 104 -28q63 -35 103 -133q39 -96 42 -203q2 -64 2 -126q0 -42 -1 -83q0 -20 -1 -54t-5 -68.5t-10.5 -67.5t-16.5 -51 l-29 -4q-14 -2 -26 -7q-21 -6 -41 -6q-32 0 -62 17q4 145 13 293q1 22 1 44t-1 45q-2 46 -9 89q-16 100 -64 132q-34 22 -71 22q-15 0 -31 -4q-54 -13 -100.5 -59t-58.5 -99q-25 -104 -28 -211t-3 -211v-50q-16 0 -40.5 -2t-49.5 -2t-44.5 7.5t-27.5 25.5v77q0 60 -1 142 t-1 173z" />
<glyph unicode="o" horiz-adv-x="980" d="M60 388v18q0 74 23 145q26 80 79 149.5t135 118.5l50.5 29.5t55.5 25.5q23 8 47.5 11.5t45.5 5.5q15 1 31 1q47 0 95 -9q65 -12 117 -49q88 -59 133.5 -147.5t49.5 -183.5v-22q0 -84 -28 -169q-32 -95 -94.5 -168.5t-153.5 -117.5q-80 -39 -178 -39q-14 0 -28 1 q-47 2 -92 18q-94 33 -156.5 91.5t-95.5 133t-36 157.5zM231 420q0 -41 6.5 -81t26.5 -75q37 -63 116 -81q29 -6 59 -6q50 0 102 19q82 30 143 105.5t61 196.5q0 66 -28.5 116t-74.5 78.5t-103 34.5q-12 1 -25 1q-45 0 -88 -17q-55 -23 -102.5 -74t-73.5 -137l-12 -40 q-7 -20 -7 -40z" />
<glyph unicode="p" horiz-adv-x="978" d="M100 834q6 2 23.5 7t43.5 9t58 6q11 1 22 1q22 0 46 -3q0 -25 -2 -39t-3 -26.5t0 -26.5t7 -37q8 10 39 32.5t57 39.5q47 27 88 33t90 16l6 -2q70 -14 119 -30.5t103 -72.5q104 -109 104 -254q0 -111 -46 -188.5t-128 -146.5q-35 -29 -85 -59t-105.5 -48t-109.5 -22 q-8 -1 -16 -1q-45 0 -83 19q-16 0 -25.5 10t-26.5 12q0 -68 -2 -136t-6 -136l6 -184q-23 -6 -35 -11.5t-23 -6.5h-8q-8 0 -17 1q-13 2 -33 11q-4 2 -23.5 8t-21.5 8q-6 6 -7 23v868v63q0 25 -1 46.5t-1 46.5v63q0 23 -3 53q-2 18 -1 34q-1 11 0 20zM281 298q2 -52 4 -73 q38 -20 81 -20q28 0 58 8q57 14 111.5 35.5t96.5 54.5t67.5 81t25.5 118q0 74 -51 109.5t-120 41.5l-31 2q-54 0 -107 -17q-70 -22 -107 -60q-14 -14 -20 -63.5t-8 -106.5q-1 -29 -1 -56.5t1 -53.5z" />
<glyph unicode="q" horiz-adv-x="985" d="M66 346q-4 29 -4 59q0 62 17 126q26 95 83 173t141 128.5t189 50.5q59 0 115.5 -20.5t109.5 -49.5q6 25 13 33t11 33q7 5 19 5q6 0 14 -1q23 -4 33 -15q2 0 12 -2t23.5 -5t25 -6t15.5 -5q-20 -268 -30 -521q-8 -207 -8 -424q0 -48 1 -98q0 -35 1 -80v-30q0 -28 -1 -51 q-10 -2 -21 -2q-16 0 -34 4q-31 6 -58 2q-14 4 -35 -2q-9 -3 -16 -3q-10 0 -16 5q0 121 6 256q3 68 3 131.5t-3 124.5q-43 -27 -89 -50.5t-94.5 -37t-97.5 -14.5h-6q-46 0 -94 16q-104 35 -158.5 107.5t-66.5 162.5zM250 469q-6 -33 -6 -61q0 -30 7 -55q13 -46 44 -71.5 t75 -32.5q24 -4 49 -4q22 0 44 3q49 6 98 25.5t90 48.5q10 20 24.5 66t23.5 96q10 56 11 99q0 40 -18 58q-39 41 -88 59q-42 16 -86 16h-14q-51 -3 -99.5 -26.5t-85.5 -64.5q-29 -33 -45 -73t-24 -83z" />
<glyph unicode="r" horiz-adv-x="729" d="M102 0q0 199 3.5 394.5t3.5 393.5q0 23 2 47l4 48q18 0 45 4q13 2 24 2t19 -2q25 -6 44 -21.5t38 -50.5q6 -27 6 -55.5t2 -54.5h2q29 27 60.5 59.5t76.5 58t107 37.5q28 6 62 6q40 0 87 -8q10 -8 12 -28q1 -8 1 -15q0 -12 -2 -25q-3 -22 -8 -41.5t-9 -27.5 q-16 -2 -30.5 -1t-28.5 1q-4 2 -15.5 2t-15.5 -2q-55 -14 -102.5 -45t-85 -71t-66.5 -84t-47 -83q0 -35 1 -92t1 -117.5t-2 -115t-8 -84.5q-4 -18 -28 -25.5t-52 -8.5h-19l-39 1q-29 2 -43 4z" />
<glyph unicode="s" horiz-adv-x="868" d="M59 72q6 18 10.5 42.5t10.5 50t16 48.5t27 39l31 -25q14 -14 36.5 -30.5t48 -29.5t51 -21.5t46.5 -8.5h27q110 0 177 30q73 33 72 86q0 27 -24.5 43.5t-40.5 25.5q-55 25 -128 37t-136.5 34.5t-107.5 67.5t-44 137q0 59 31 107.5t81 85t113.5 61.5t128.5 38q61 12 119 12 h8q61 -1 109 -15q10 -4 28.5 -10.5t28.5 -12.5q8 -23 -2 -38t-14 -38q-4 -4 -6 -14l-4 -21q-2 -11 -3 -21.5t-6 -10.5q-20 -2 -41.5 2t-44.5 6q-36 3 -76 3h-20q-51 -1 -99 -13t-89 -39t-64 -74l-2 -4q2 -20 15.5 -37.5t33 -30t40 -20.5t38.5 -10q47 -6 94 -15.5t89 -22.5 t75 -27.5t51 -28.5q35 -25 42.5 -48.5t15.5 -62.5q5 -25 5 -49q0 -33 -10 -61q-17 -48 -56.5 -82.5t-92.5 -59t-110.5 -38t-114.5 -19.5q-43 -5 -79 -5q-12 0 -24 1q-72 4 -135.5 27.5t-124.5 58.5z" />
<glyph unicode="t" horiz-adv-x="761" d="M43 743q-1 12 -1 27q0 28 3 64q10 14 62.5 20t107.5 6q2 35 3 70t3 67q2 55 2 118t17 116q16 4 36.5 10t40.5 10q7 2 21 3q10 0 23 -2q32 -3 45 -3q0 -10 2 -41.5t0 -50.5q-4 -47 -5.5 -88t-5.5 -94q-2 -29 -3 -56.5t-3 -56.5q66 4 141.5 4t129.5 -8q8 -8 11 -32.5t3 -51 t-3 -48t-5 -24.5q-23 -6 -104 -9t-179 -5q-2 -84 -3 -166q0 -24 -2.5 -86t-2.5 -97q0 -49 19 -81q22 -35 73 -63q23 -12 60 -17h9q32 0 58 27q27 14 50.5 10t42 -18.5t29.5 -30.5t13 -27q-25 -49 -47 -74.5t-47 -37t-54.5 -12.5t-68.5 -1q-55 2 -91 11.5t-77 42.5 q-68 55 -98.5 105t-41.5 105q-9 43 -9 90q0 13 1 27l7 144q2 35 3 71.5t1 75.5q-47 -2 -85 -2h-56q-23 22 -25 59z" />
<glyph unicode="u" horiz-adv-x="911" d="M109 590q0 20 3 54t7 69t12 67.5t19 50.5q12 2 27.5 3.5t27.5 5.5q19 7 37 7q9 0 17 -2q26 -5 48 -16q-4 -74 -10 -147l-12 -145q-3 -34 -4 -72q0 -9 1 -19q1 -47 7 -90q8 -68 32.5 -103.5t58.5 -46.5q19 -6 38 -6q16 0 34 4q38 9 71.5 31.5t58 55.5t34.5 69 q29 104 33 210l8 210v49q16 0 41 2.5t49.5 1t45 -8.5t26.5 -25q0 -16 -1 -76.5t-3 -142.5t-4 -173.5t-5 -170t-8 -132t-12 -59.5q-8 -6 -35.5 -7t-39.5 -3q-10 -8 -25.5 -4t-28.5 4q-16 61 -16 131q-55 -59 -127 -101t-142 -51q-13 -2 -26 -1q-56 0 -107 29q-62 36 -100 134 q-36 96 -36 198q1 85 6 216z" />
<glyph unicode="v" horiz-adv-x="860" d="M18 797q27 27 47.5 39t38 16t35 3t37.5 -3q6 -18 13.5 -44t14.5 -54.5t13 -56t12 -46.5q33 -100 63 -213.5t77 -208.5q8 23 34 80l62 130l75 153l74 147q35 68 61.5 114t35.5 54q11 4 23 4q21 0 44 -11q37 -17 62 -42q-10 -25 -14.5 -31t-14.5 -28l-83 -153 q-44 -79 -79 -157l-33 -71l-28 -65l-28 -65l-30 -73q-6 -18 -18 -48l-26 -61l-26 -59l-22 -47q-12 -2 -34.5 -2t-47 2t-47 2t-35.5 -2q-2 6 -6 16.5t-10 21.5l-11 21q-5 10 -7 17l-29 67l-33 84l-30.5 85t-22.5 71q-29 82 -48 165l-40 167q-4 23 -6.5 41t-12.5 41z" />
<glyph unicode="w" horiz-adv-x="1181" d="M20 801q25 27 42.5 39t33 16t30.5 2t34 -2q6 -18 11 -45t11 -55.5l11.5 -55t11.5 -45.5q29 -100 52.5 -205.5t64.5 -201.5l25 79l45 137l55 159q30 82 57 143q45 16 75 21q13 2 30 3q21 0 46 -4q14 -49 29 -117l29 -143l27 -143q13 -70 28 -121q8 23 32 78l53 124l65 144 l64 140l52.5 107t30.5 52q11 4 22 4q20 0 42 -11q36 -17 59 -42q-6 -25 -10 -31t-15 -28l-72 -153q-38 -79 -69 -157l-29 -68l-23 -57l-23 -58l-25 -70q-6 -18 -19 -48l-26 -60l-27 -60l-21 -48q-10 -2 -30.5 -2t-42 2.5t-41 2.5t-29.5 -3l-15 38l-16 38q-12 27 -24.5 80 t-23.5 111l-22 110q-11 53 -20 84l-8 29q-10 -25 -23 -65l-28 -84l-28 -87q-13 -43 -23 -71l-15 -45l-17 -56l-17 -54q-8 -26 -17 -44q-10 -2 -30.5 -2t-42 1t-41 2t-29.5 -1l-16 37l-15 37q-12 29 -26.5 69.5t-27.5 83.5l-27 85q-13 42 -21 71q-23 82 -41.5 164t-34.5 166 q-4 23 -6.5 42t-10.5 42z" />
<glyph unicode="x" horiz-adv-x="905" d="M12 27q0 31 35 87t81 116l91 116q45 55 68 86l-103 174q-49 80 -94 182q6 6 26.5 17.5t44.5 21.5l45 20q22 9 30 13q35 -61 76.5 -144t101.5 -161q6 2 26.5 23.5t46.5 53.5l59 69l62 74q31 36 57.5 63.5t45.5 38.5q5 1 10 0q40 0 78 -41q6 -8 22.5 -16.5t20.5 -18.5 q-18 -14 -46 -43l-62 -65l-68 -76l-65 -77.5t-51.5 -68.5t-29.5 -49l92 -116q47 -56 103 -103q41 -35 77 -56l62 -36q-10 -23 -31.5 -43.5t-49.5 -34t-55.5 -16.5t-49.5 10q-14 8 -26.5 18t-27.5 18q-16 18 -42.5 40l-45.5 38q-29 29 -57.5 67t-62.5 62q-18 -4 -52.5 -44 t-70.5 -89l-71 -95q-34 -46 -52 -65q-2 -1 -4 0q-7 0 -24 5q-22 6 -46 15l-46 17q-22 9 -28 13z" />
<glyph unicode="y" horiz-adv-x="860" d="M47 813q10 0 37 7l55 15q29 7 52.5 12t27.5 1q4 -2 10.5 -22.5t12.5 -46.5l11 -48q5 -23 7 -31q27 -104 74 -225t102 -213q70 152 127.5 306.5t122.5 305.5q16 8 44 14q20 4 39 3h15q27 -2 48.5 -12.5t27.5 -34.5q-29 -92 -70.5 -177t-80.5 -175l-147 -356 q-73 -179 -173 -343l-35 -62l-47 -82q-25 -42 -49.5 -77t-44.5 -47q-41 0 -62 21l-51 48l-20 52q51 45 85 101t73 112q10 14 26.5 43.5t31.5 62.5t27.5 63.5t18.5 49.5q-6 23 -18 45l-25 43q-16 27 -40 78l-51 112q-28 61 -54 130l-50 131q-23 62 -38 113.5t-19 82.5z" />
<glyph unicode="z" horiz-adv-x="835" d="M36 60q0 9 2 19q3 13 9 36q6 20 37 61t75 92l95 108l99 107l87 91l60 61q16 16 30.5 34.5t30.5 35.5q-84 8 -184 13q-26 1 -52 1q-71 0 -132 -10l-47 -9q-24 -4 -48 -4q-2 14 -11 34t-3 32l-4 78q25 14 58.5 13t60.5 3q8 0 46 2t91 3t113.5 1t117 -1t99.5 -3t61 -6 q20 -2 36.5 -15.5t26 -34t9.5 -45t-13 -48.5l-32 -29q-43 -37 -112 -109l-141 -152l-137 -158q-65 -77 -96 -124q37 -5 79 -5q21 0 44 1q68 4 135.5 9t129.5 6q4 0 9 1q57 0 101 -14q4 -25 8 -42t5 -31.5t-2 -29t-11 -32.5q-14 -4 -65.5 -4t-110.5 1l-115 2q-55 1 -76 1 q-45 -3 -88 -3q-22 0 -44 1q-32 1 -65 1t-67 -1q-23 -2 -44 -6q-5 -1 -11 -1q-16 0 -31 9q-6 18 -9 31q-4 17 -4 29z" />
<glyph unicode="{" horiz-adv-x="649" d="M92 774.5q2 22.5 8 39.5t17 17q45 12 89 33t60 58q4 10 4 62t-2 114.5t-5 120t-3 75.5q-4 74 3 133.5t34 104.5t77 76.5t132 54.5q37 -2 55.5 -39t13.5 -80q-20 -4 -45.5 -10t-49 -16.5t-42 -25.5t-26.5 -38q-2 -8 -4 -39t-2 -73v-91q0 -49 1 -91t1 -74.5t2 -41.5 q2 -47 2 -88t-9.5 -75.5t-30 -63.5t-59.5 -51q39 -23 59.5 -51.5t30 -63.5t9.5 -75.5t-2 -88.5q0 -8 -1 -40.5t-2 -74.5t-1 -91v-92q0 -42 2 -72.5t4 -38.5q8 -23 26.5 -38t42 -25.5t49 -16.5t45.5 -10q4 -43 -14 -80t-55 -39q-82 20 -132 53t-77 78t-34 104.5t-3 133.5 q0 18 3 74.5t5 120t2 115.5t-4 62q-16 37 -60 57.5t-89 32.5q-14 8 -20.5 30t-4.5 44.5z" />
<glyph unicode="|" horiz-adv-x="649" d="M223 96q0 80 2 164t5 165t3 136h3q4 104 7 208.5t3 209.5q0 74 5 149.5t5 153.5v133q0 70 10 131q25 27 42.5 25t47.5 -8q2 -6 11.5 -8.5t21.5 -3.5t22.5 -2t14.5 -3q-8 -336 -6 -666.5t-8 -666.5l-6 -258q-10 -10 -21 -16q-23 -14 -53 -7q-4 -2 -18.5 2.5t-31.5 10.5 l-32 11q-14 5 -19 5q-8 55 -8 135z" />
<glyph unicode="}" horiz-adv-x="649" d="M92 -12q20 4 46 10t49.5 16.5t42 25.5t26.5 38q2 8 4 38.5t2 72.5v92v91q0 42 -1 74.5t-1 40.5q-4 47 -4 88t9 76t30.5 63.5t58.5 51.5q-37 23 -58.5 51.5t-30.5 63t-9 75.5t4 88q0 8 1 41t1 75v91v91q0 42 -2 73t-4 39q-8 23 -26.5 38t-42 25.5t-49 16.5t-46.5 10 q-2 43 15.5 80t54.5 39q82 -23 132 -54.5t77.5 -76.5t35 -104.5t3.5 -133.5q0 -18 -3.5 -75.5t-5.5 -120t-3 -114.5t3 -62q16 -37 60.5 -57.5t91.5 -33.5q8 0 15 -17t8.5 -39.5t-4 -44t-19.5 -30.5q-47 -12 -91 -32.5t-61 -57.5q-4 -10 -3 -62t3 -115.5t5.5 -120t3.5 -74.5 q4 -74 -3.5 -133.5t-35 -104.5t-77.5 -78t-132 -53q-37 2 -54.5 39t-15.5 80z" />
<glyph unicode="~" horiz-adv-x="909" d="M68 772q49 66 92 101.5t89 45t99 -6t123 -52.5l32 -16q19 -10 40.5 -19.5t41 -15.5t31.5 -6q45 0 83 34.5t63 69.5q41 -6 49 -27l23 -61q-51 -68 -95.5 -100.5t-88.5 -37.5t-92 11.5t-105 44.5q-12 6 -34 15.5t-46.5 18.5t-47 16.5t-34.5 7.5q-27 2 -48.5 -9.5t-40 -29 t-34.5 -38l-29 -38.5q-35 12 -58 38.5t-13 53.5z" />
<glyph unicode="&#xa1;" horiz-adv-x="487" d="M129 1116q-8 41 11.5 83t72.5 65q31 12 50.5 4t35.5 -17q39 -20 52.5 -56t6 -70.5t-34 -62.5t-65.5 -34q-53 -8 -87 19.5t-42 68.5zM141 -166q0 18 4.5 90t9.5 171l11 212l11 211q5 98 8 169t3 87q0 18 3.5 50t5.5 42q10 2 28.5 4t30.5 -2q20 -2 24.5 -5t22.5 -7 q4 -18 9 -94t10 -179l9 -224q5 -120 7 -223t3 -179t-1 -94t-33 -29.5t-67.5 -15.5t-66.5 0t-32 16z" />
<glyph unicode="&#xa2;" horiz-adv-x="837" d="M71.5 200q-26.5 83 10.5 179t151 176q82 57 183 86q-6 53 -7 105.5t19 99.5q41 4 74 4t61 -16l8 -54l-2 -2q0 -25 -1 -40t-3 -26.5t-3 -20.5t-3 -23q10 0 20.5 1t20.5 1q41 0 81 -3t77 -20q25 -31 14.5 -54.5t-16.5 -55.5q-6 -20 -20.5 -24.5t-33 -1.5t-38 7t-35.5 2 q-16 4 -49 2t-50 2q-78 -6 -137 -37.5t-96 -74.5t-49 -91.5t4 -89.5t64.5 -67.5t129.5 -26.5q96 0 178.5 40t149.5 89q29 -10 46.5 -28.5t21.5 -59.5q-6 -18 -27.5 -35.5t-48.5 -35t-55.5 -31t-48.5 -21.5q-53 -25 -109 -37q0 -25 -2 -39t-5 -29.5t-5 -38t-4 -65.5 q-12 -6 -31 -4t-29 6q-25 -6 -37 -0.5t-34 9.5q-4 37 -9.5 71.5t-5.5 69.5q-127 2 -210 60.5t-109.5 141.5z" />
<glyph unicode="&#xa3;" horiz-adv-x="1071" />
<glyph unicode="&#xa5;" horiz-adv-x="1144" d="M18 1319q33 10 49.5 23.5t51.5 21.5l39 12q16 4 29.5 8.5t17.5 -0.5l20.5 -48t24.5 -54l130 -254q67 -125 150 -244h11q23 29 39 62l32 63l69 125l99 173l104 167q50 78 81 107q31 -4 53 -9.5t41.5 -15.5t38 -29.5t41.5 -50.5q-29 -59 -71 -115.5t-77 -111.5 q-23 -35 -55 -90l-69 -120l-71 -130l-67 -119q86 -2 160 -4t102 -6q8 -8 12.5 -27.5t5.5 -39t-1 -35t-4 -17.5q-10 -4 -42 -5t-79 -3t-107 -2h-123q-2 -14 -3 -42l-2 -57q-1 -30 -1 -55v-30v-5q53 0 107.5 -1t100.5 -2t82 -3t54 -4q8 -8 12.5 -26.5t4.5 -38t-2 -33.5t-5 -16 q-10 -4 -41.5 -5.5t-77.5 -3.5t-104.5 -3t-122.5 -1q2 -31 3 -63.5t1 -63t-1 -53t-5 -31.5q-10 -10 -44 -17t-71.5 -9t-68.5 0t-33 12l-2 61q-2 82 0 162h-330q-10 12 -16 20.5t-8 18.5t-2 25.5t2 42.5q8 14 47 20t86 8t90 2h62q10 0 28.5 1t42.5 1q0 98 -12 189h-320 q-10 12 -16 20.5t-8 18.5t-2 25.5t2 41.5q8 12 40 18.5t72.5 9.5t81.5 3h68l-55 89l-69 116l-72 126q-36 65 -64.5 122t-46 104t-17.5 74z" />
<glyph unicode="&#xa8;" horiz-adv-x="667" d="M93 1373q7 34 29.5 59.5t55.5 31.5q47 6 76 -19.5t36 -62t-10.5 -76.5t-62.5 -61q-27 -12 -43 -6t-33 16q-33 18 -44 51t-4 67zM401.5 1373q6.5 34 29 59.5t56.5 31.5q47 6 76 -19.5t36 -62t-11.5 -76.5t-63.5 -61q-25 -12 -41 -6t-32 16q-35 18 -45.5 51t-4 67z" />
<glyph unicode="&#xa9;" horiz-adv-x="1167" d="M55 840q-4 92 28 181t97.5 167t163.5 131l62.5 33.5t68.5 27.5q29 10 58.5 13.5t54.5 5.5q76 4 154.5 -9.5t144.5 -54.5q109 -68 164 -164t61 -202.5t-34 -212t-116.5 -187.5t-189.5 -131t-252 -43q-29 2 -56.5 7.5t-55.5 13.5q-115 35 -192 100.5t-117 148.5t-44 175z M174 848q0 -57 10.5 -113.5t42.5 -107.5q39 -59 112 -91t160 -33t177 26.5t163.5 85t121 143.5t47.5 200q0 94 -47.5 165t-122 113t-166.5 50t-181.5 -23.5t-166 -104.5t-119.5 -195l-21 -58q-10 -28 -10 -57zM311 827q-4 37 7.5 79t34 81t55 72t75.5 53q59 29 111.5 40 t124.5 -5l34.5 -8t32.5 -15q25 -16 43.5 -37.5t18.5 -46.5q-16 -10 -31.5 -27.5t-32.5 -23.5q-20 29 -48.5 49.5t-73.5 24.5q-61 8 -106.5 -14.5t-74.5 -59.5l-24 -36q-12 -17 -23 -38q-12 -27 -16 -58.5t3 -62t27.5 -57t59.5 -39.5q47 -16 99 -11t93 26q10 4 25.5 13 t31 20.5t28 22.5t16.5 19q18 -2 32.5 -13t26.5 -19q0 -10 -1 -15.5t-9 -11.5q-10 -20 -32.5 -38.5t-45.5 -31.5q-43 -23 -94 -35t-102.5 -12t-100.5 15.5t-88 46.5q-12 10 -20.5 20.5t-16.5 22.5t-21.5 37.5t-9.5 36.5q-4 8 -5 18t-3 18z" />
<glyph unicode="&#xab;" horiz-adv-x="870" d="M76 487q14 29 34 62l40 64l40 61l35 49q27 37 50.5 77t52.5 74q10 2 21 4.5t22 2.5h-2q18 0 51 -6.5t41 -26.5q-6 -31 -33 -82t-60.5 -105.5t-68.5 -102.5l-55 -75l50 -79l75 -115l96 -148q-8 -2 -28.5 -13t-24.5 -15l-78 -2q-25 45 -66 97t-69 93q-31 43 -70 89t-53 97z M424 487q14 29 34 62l40 64q20 32 41 61l34 49q27 37 50.5 77t52.5 74l21.5 4.5t21.5 2.5h-2q18 0 51 -6.5t41 -26.5q-6 -31 -32.5 -82t-60.5 -105.5t-69 -102.5l-55 -75l50 -79l75 -115l96 -148q-8 -2 -28.5 -13t-24.5 -15l-78 -2q-25 45 -66 97t-69 93q-31 43 -70 89 t-53 97z" />
<glyph unicode="&#xad;" d="M79 568q-3 36 1 89q8 14 47 20.5t86 8.5t90 2h62q23 0 71.5 1t111.5 1h131q69 0 130 -1t110.5 -4t71.5 -5q8 -8 12.5 -32.5t4.5 -51.5t-2 -48.5t-5 -23.5q-14 -4 -80.5 -7t-158.5 -4t-198.5 -2t-201.5 -1h-164h-94q-22 22 -25 58z" />
<glyph unicode="&#xae;" horiz-adv-x="1177" d="M60 840q-3 92 28 181t96.5 167t165.5 131l62.5 33.5t68.5 27.5q29 10 58.5 13.5t54.5 5.5q76 4 154.5 -9.5t144.5 -54.5q109 -68 163 -164t60 -202.5t-33 -212t-115.5 -187.5t-189 -131t-252.5 -43q-29 2 -56.5 7.5t-55.5 13.5q-115 35 -193 100.5t-118 148.5t-43 175z M180 848q0 -57 10.5 -113.5t42.5 -107.5q39 -59 112 -91t160 -33t176 26.5t163 85t121 143.5t47 200q0 94 -47 165t-122 113t-167 50t-181 -23.5t-166 -104.5t-120 -195l-19.5 -57.5t-9.5 -57.5zM370 1077.5q1 24.5 6 46t15 23.5q10 4 16.5 5t18.5 1q16 0 31.5 3t31.5 3 t31 1t31 -1q23 0 48.5 -1t47.5 -3q37 -4 67.5 -17.5t55.5 -31.5t43 -40t23 -48q0 -4 2 -5t0 -5q2 -4 0 -16.5t-2 -16.5q-8 -43 -56.5 -66.5t-107.5 -40.5q10 -6 24 -19l31 -29l31 -29q14 -14 24 -23q2 -2 3 -2t3 -2l64 -54q33 -28 45 -44q-2 -4 -14.5 -6.5t-28.5 -4.5 t-34.5 -3t-31.5 -1q-33 23 -54 40l-56 44q-35 29 -74 66t-63 49q-23 -2 -38 -2h-24v-24q0 -24 1 -53.5t2 -55t3 -31.5q0 -4 1 -17.5t-3 -15.5q-2 -6 -16 -10t-31.5 -4t-35 3t-23.5 9q-2 20 -3 51t-1 64v66v65v125q0 -4 -2 14.5t-1 43zM473 1031q2 -30 2 -54v-9v-4v-10v-16 q0 -12 2 -23q80 -6 141.5 4.5t96.5 34.5q25 18 25.5 42t-19 44.5t-55 35t-82.5 14.5q-14 0 -19.5 1t-21.5 1v-2q-33 0 -60 -7q-12 -22 -10 -52z" />
<glyph unicode="&#xb0;" horiz-adv-x="667" d="M73.5 1207.5q-18.5 60.5 10.5 126t123 108.5q33 16 55.5 23.5t61.5 9.5q35 2 72.5 -4.5t70.5 -22.5q84 -43 103.5 -111.5t-9.5 -132t-99.5 -108.5t-168.5 -41q-84 2 -142.5 47t-77 105.5zM201 1255q0 -59 37.5 -76.5t82 -7t82 43t37.5 73.5q0 29 -27.5 51.5t-66.5 27.5 t-78 -13.5t-59 -69.5q-8 -17 -8 -29z" />
<glyph unicode="&#xb1;" d="M79 56q-3 36 1 89q8 14 47 20.5t86 8.5t90 2h62q12 0 31.5 1t45.5 1q-4 27 -5 64t0 72.5t3 65.5t2 44v86h-338q-23 23 -25.5 58.5t1.5 88.5q8 14 47 20.5t86 8.5t90 2h62q14 0 35.5 1t50.5 1q2 55 5 111.5t6 104.5t6 86t7 57q8 8 32.5 12t51.5 5t48.5 -1t23.5 -4 q2 -10 3 -44t1 -84t-2 -113l-4 -130q55 0 111.5 -1t105.5 -2t88 -3t57 -4q8 -8 12.5 -32.5t4.5 -51.5t-2 -48.5t-5 -23.5q-10 -4 -44.5 -6t-86 -3t-115 -2t-132.5 -1l-7.5 -203t-7.5 -131h118q60 0 112.5 -2t92.5 -4t60 -4q8 -8 12.5 -32.5t4.5 -51.5t-2 -48.5t-5 -23.5 q-14 -4 -80.5 -7t-158.5 -4t-198.5 -2t-201.5 -1h-164h-94q-22 22 -25 58z" />
<glyph unicode="&#xb4;" horiz-adv-x="485" d="M76 1200q14 45 41.5 91t59.5 84t62.5 68t49.5 44q23 6 46 1t42.5 -15.5t34 -21.5t16.5 -17q-20 -43 -56 -77l-74 -67q-38 -33 -73 -68.5t-53 -84.5q-20 8 -33.5 8t-32.5 16q-12 10 -24 15.5t-6 23.5z" />
<glyph unicode="&#xb8;" horiz-adv-x="770" d="M78 -414q2 23 1 33t13 31q10 10 20.5 16t26.5 10q14 -6 43 -13t61.5 -12t63.5 -8t47 -3q25 0 55.5 5t57.5 15t45 28.5t18 43.5q0 27 -27.5 42t-69.5 21t-92 7t-93 -1q6 29 19.5 62t29.5 67l28 66l23 53l146 2q-4 -16 -13 -39l-18 -49l-12 -33l-11 -26q74 -2 138.5 -24.5 t101.5 -96.5q10 -20 13 -35.5t-1 -38.5q-6 -53 -41 -89t-83 -58.5t-102 -31.5t-97 -9q-23 0 -43.5 3t-42.5 5q-72 6 -115 20t-90 37z" />
<glyph unicode="&#xbb;" horiz-adv-x="870" d="M76 141l96 148l74 115q35 56 51 79q-23 27 -57.5 75t-68.5 102.5t-60.5 105.5t-32.5 82q8 20 41 26.5t51 6.5h-2q10 0 21.5 -2t21.5 -5q29 -35 52.5 -74.5t49.5 -76.5l35 -49l41 -61l41 -64q20 -33 35 -62q-16 -51 -54 -97t-69 -89q-29 -41 -71 -93t-66 -97l-76 2 q-6 4 -26.5 15t-26.5 13zM424 141l96 148l74 115q35 56 51 79q-23 27 -57.5 75t-68.5 102.5t-60.5 105.5t-32.5 82q8 20 41 26.5t51 6.5h-2q10 0 21.5 -2t21.5 -5q29 -35 52.5 -74.5t50.5 -76.5l34 -49l41 -61l41 -64q20 -33 35 -62q-16 -51 -54 -97t-69 -89 q-29 -41 -70.5 -93t-66.5 -97l-76 2q-6 4 -26.5 15t-26.5 13z" />
<glyph unicode="&#xbf;" horiz-adv-x="989" d="M55 119q-2 78 27 138t75 107.5t102 84.5l108 70q51 34 90 65.5t51 70.5q4 12 6 41t2 63t-1 64.5t-3 44.5q8 14 34.5 19.5t57.5 2.5t58.5 -17.5t37.5 -41.5q12 -33 14.5 -77.5t-5 -90t-22.5 -86t-36 -65.5q-25 -31 -62.5 -60.5t-79.5 -57.5l-84 -54l-75 -49 q-31 -20 -64.5 -53t-49 -70t-5 -74t65.5 -67q41 -23 82 -27t86 0q94 10 170 40t137 99q16 16 29.5 38t29.5 38q12 2 27.5 -15.5t29 -43t25 -51t15.5 -35.5q-37 -72 -99.5 -122t-138.5 -81t-158.5 -42t-162.5 -5q-61 4 -130 30.5t-108 79.5q-35 47 -54.5 89.5t-21.5 99.5z M486.5 1126q-7.5 41 12 83t72.5 65q29 12 49.5 5t36.5 -17q39 -20 52.5 -55.5t5.5 -71t-34 -63.5t-65 -34q-55 -8 -88.5 19.5t-41 68.5z" />
<glyph unicode="&#xc0;" horiz-adv-x="1218" d="M14 41q0 6 2 16.5t5.5 22.5t5.5 22.5t0 14.5q6 31 16 65.5t20 65.5q10 41 26 82l32 82l56 143l56 143l107 266q53 132 113 261q20 45 47 80q16 23 36.5 40t36.5 37q14 4 25.5 11.5t22.5 17.5l22 4h-2q41 0 68.5 -11t46 -26.5t30 -32t19.5 -26.5q25 -84 45 -167t45 -169 q45 -160 95 -314.5t108 -310.5l52 -141q26 -70 54 -137l-41 -35q-4 -2 -17 -8l-30 -13q-16 -7 -30.5 -14.5t-16.5 -9.5h-15q-9 0 -14 4q-4 0 -8 3t-8 5q-27 20 -51.5 67.5t-46 100.5t-39 105.5t-29.5 85.5q-6 14 -14 30l-78 -2q-31 -2 -70 3.5t-69 0.5q-78 -10 -144 -6 l-129 9l-31 -95q-19 -57 -42 -116.5t-46.5 -113.5t-44.5 -85h-31h-40q-20 0 -40 1t-32 5q-8 12 -14 15l-10 6q-4 2 -6.5 5t-2.5 13zM434 610q16 -4 23 -6q20 -4 64 -8t94.5 -7t97.5 -3t71 4l2 16l-19 81l-13 54q-6 25 -15 55l-22 81l-41 139q-8 27 -17.5 64.5t-19.5 66.5 q-33 -70 -59 -135l-52 -130q-25 -65 -47 -131zM535 1815q2 6 15 17t33.5 21.5t44 15.5t46.5 -1q18 -14 49 -44t62.5 -68t59 -84t44.5 -91h-2q6 -18 -6.5 -23.5t-22.5 -15.5q-20 -16 -32.5 -16t-32.5 -8q-18 49 -53 84.5t-74 68.5t-75 67t-56 77z" />
<glyph unicode="&#xc1;" horiz-adv-x="1218" d="M14 41q0 -10 2 -13t7 -5l10 -6q6 -3 14 -15q12 -4 31.5 -5t40.5 -1h40h31q20 31 44 85t46.5 113.5l42.5 116.5l31 95l129 -9q66 -4 144 6q31 4 69.5 -1t69.5 -3l78 2q8 -16 14 -30q12 -33 29.5 -85.5t39 -105.5t46 -100t51.5 -68q4 -2 8 -5t8 -3q4 -4 14 -4h15 q2 2 16.5 9l30.5 15l30 13q13 6 17 8l41 35q-29 68 -54 137l-52 141q-57 156 -107.5 310.5t-95.5 314.5q-25 86 -45.5 169t-44.5 167q-8 10 -19.5 26.5t-30 32t-46 26.5t-68.5 11h2l-22 -4q-10 -10 -21.5 -17.5t-26.5 -11.5q-16 -20 -36.5 -37.5t-36.5 -39.5 q-27 -35 -47 -80q-59 -129 -113 -261l-107 -266l-56 -143l-56 -143l-32 -82q-15 -41 -26 -82q-10 -31 -20 -66t-16 -65q2 -4 0 -14.5t-5.5 -22.5t-5.5 -22.5t-2 -16.5zM434 610l47 141l47 131l52 130q27 66 59 135q10 -29 19.5 -67t17.5 -64l41 -139l22 -81l15 -55l13 -54 l19 -81l-2 -16q-25 -4 -71.5 -4t-97 3t-94.5 7t-64 8q-7 2 -23 6zM494 1581q14 45 42.5 91t60.5 84t62.5 67.5t49.5 44.5q23 6 46 1t42.5 -15.5t34 -21.5t16.5 -17q-20 -43 -56 -77t-75 -67t-74 -68.5t-53 -84.5q-20 8 -32.5 8t-33.5 16q-10 10 -22.5 15.5t-5.5 23.5h-2z " />
<glyph unicode="&#xc2;" horiz-adv-x="1218" d="M14 41q0 -10 2 -13t7 -5l10 -6q6 -3 14 -15q12 -4 31.5 -5t40.5 -1h40h31q20 31 44 85t46.5 113.5l42.5 116.5l31 95l129 -9q66 -4 144 6q31 4 69.5 -1t69.5 -3l78 2q8 -16 14 -30q12 -33 29.5 -85.5t39 -105.5t46 -100t51.5 -68q4 -2 8 -5t8 -3q4 -4 14 -4h15 q2 2 16.5 9l30.5 15l30 13q13 6 17 8l41 35q-29 68 -54 137l-52 141q-57 156 -107.5 310.5t-95.5 314.5q-25 86 -45.5 169t-44.5 167q-8 10 -19.5 26.5t-30 32t-46 26.5t-68.5 11h2l-22 -4q-10 -10 -21.5 -17.5t-26.5 -11.5q-16 -20 -36.5 -37.5t-36.5 -39.5 q-27 -35 -47 -80q-59 -129 -113 -261l-107 -266l-56 -143l-56 -143l-32 -82q-15 -41 -26 -82q-10 -31 -20 -66t-16 -65q2 -4 0 -14.5t-5.5 -22.5t-5.5 -22.5t-2 -16.5zM356 1565q2 2 17.5 19.5t17.5 19.5l37 49q18 25 41 47l44 45q28 29 50 45l15 12q8 2 18 17q25 -4 68 -2 t65 0q14 -14 32.5 -36t29.5 -32q18 -23 32 -38l37 -38q23 -23 35 -32t35 -31q4 -4 16 -13q4 -4 9.5 -11t19.5 -23q-35 -16 -68 -22.5t-59 -2.5q-10 2 -35 23l-54 47q-30 27 -57.5 54.5l-44.5 45.5q-29 -23 -50 -51.5t-46 -54.5q-6 -6 -10 -13q-4 -8 -10 -14l-14 -17 q-7 -9 -19 -20q-23 -2 -35 -2t-27 2q-14 2 -31.5 6.5t-58.5 20.5zM434 610l47 141l47 131l52 130q27 66 59 135q10 -29 19.5 -67t17.5 -64l41 -139l22 -81l15 -55l13 -54l19 -81l-2 -16q-25 -4 -71.5 -4t-97 3t-94.5 7t-64 8q-7 2 -23 6z" />
<glyph unicode="&#xc3;" horiz-adv-x="1218" d="M14 41q0 6 2 16.5t5.5 22.5t5.5 22.5t0 14.5q6 31 16 65.5t20 65.5q10 41 26 82l32 82l56 143l56 143l107 266q53 132 113 261q20 45 47 80q16 23 36.5 40t36.5 37q14 4 25.5 11.5t22.5 17.5l22 4h-2q41 0 68.5 -11t46 -26.5t30 -32t19.5 -26.5q25 -84 45 -167t45 -169 q45 -160 95 -314.5t108 -310.5l52 -141q26 -70 54 -137l-41 -35q-4 -2 -17 -8l-30 -13q-16 -7 -30.5 -14.5t-16.5 -9.5h-15q-9 0 -14 4q-4 0 -8 3t-8 5q-27 20 -51.5 67.5t-46 100.5t-39 105.5t-29.5 85.5q-6 14 -14 30l-78 -2q-31 -2 -70 3.5t-69 0.5q-78 -10 -144 -6 l-129 9l-31 -95q-19 -57 -42 -116.5t-46.5 -113.5t-44.5 -85h-31h-40q-20 0 -40 1t-32 5q-8 12 -14 15l-10 6q-4 2 -6.5 5t-2.5 13zM371 1673q39 49 73.5 77t71.5 35t80 -4.5t98 -39.5q14 -8 47 -22.5t50 -14.5q29 0 51 23.5t45 52.5q29 -4 42 -12.5t21 -18.5 q8 -12 12.5 -26.5l8.5 -26.5q-41 -55 -78 -81t-74 -30t-74.5 8.5t-82.5 32.5l-26 10l-32 13l-31 11q-14 5 -22 5q-16 0 -31.5 -9t-27.5 -24l-24 -28q-11 -14 -17 -25q-41 14 -66.5 38.5t-13.5 55.5zM434 610q16 -4 23 -6q20 -4 64 -8t94.5 -7t97.5 -3t71 4l2 16l-19 81 l-13 54q-6 25 -15 55l-22 81l-41 139q-8 27 -17.5 64.5t-19.5 66.5q-33 -70 -59 -135l-52 -130q-25 -65 -47 -131z" />
<glyph unicode="&#xc4;" horiz-adv-x="1218" d="M14 41q0 6 2 16.5t5.5 22.5t5.5 22.5t0 14.5q6 31 16 65.5t20 65.5q10 41 26 82l32 82l56 143l56 143l107 266q53 132 113 261q20 45 47 80q16 23 36.5 40t36.5 37q14 4 25.5 11.5t22.5 17.5l22 4h-2q41 0 68.5 -11t46 -26.5t30 -32t19.5 -26.5q25 -84 45 -167t45 -169 q45 -160 95 -314.5t108 -310.5l52 -141q26 -70 54 -137l-41 -35q-4 -2 -17 -8l-30 -13q-16 -7 -30.5 -14.5t-16.5 -9.5h-15q-9 0 -14 4q-4 0 -8 3t-8 5q-27 20 -51.5 67.5t-46 100.5t-39 105.5t-29.5 85.5q-6 14 -14 30l-78 -2q-31 -2 -70 3.5t-69 0.5q-78 -10 -144 -6 l-129 9l-31 -95q-19 -57 -42 -116.5t-46.5 -113.5t-44.5 -85h-31h-40q-20 0 -40 1t-32 5q-8 12 -14 15l-10 6q-4 2 -6.5 5t-2.5 13zM414 1705q6 34 28.5 59.5t55.5 31.5q47 6 75.5 -19.5t35.5 -62.5t-10 -77t-62 -60q-25 -12 -41.5 -6t-32.5 16q-35 18 -45 51t-4 67z M434 610q16 -4 23 -6q20 -4 64 -8t94.5 -7t97.5 -3t71 4l2 16l-19 81l-13 54q-6 25 -15 55l-22 81l-41 139q-8 27 -17.5 64.5t-19.5 66.5q-33 -70 -59 -135l-52 -130q-25 -65 -47 -131zM723 1705q6 34 28.5 59.5t55.5 31.5q47 6 75.5 -19.5t36 -62.5t-10 -77t-62.5 -60 q-25 -12 -42.5 -6t-31.5 16q-35 18 -45 51t-4 67z" />
<glyph unicode="&#xc5;" horiz-adv-x="1218" d="M14 41q0 6 2 16.5t5.5 22.5t5.5 22.5t0 14.5q6 31 16 65.5t20 65.5q10 41 26 82l32 82l56 143l56 143l107 266q53 132 113 261q20 45 47 80q16 23 36.5 40t36.5 37q14 4 25.5 11.5t22.5 17.5l22 4h-2q41 0 68.5 -11t46 -26.5t30 -32t19.5 -26.5q25 -84 45 -167t45 -169 q45 -160 95 -314.5t108 -310.5l52 -141q26 -70 54 -137l-41 -35q-4 -2 -17 -8l-30 -13q-16 -7 -30.5 -14.5t-16.5 -9.5h-15q-9 0 -14 4q-4 0 -8 3t-8 5q-27 20 -51.5 67.5t-46 100.5t-39 105.5t-29.5 85.5q-6 14 -14 30l-78 -2q-31 -2 -70 3.5t-69 0.5q-78 -10 -144 -6 l-129 9l-31 -95q-19 -57 -42 -116.5t-46.5 -113.5t-44.5 -85h-31h-40q-20 0 -40 1t-32 5q-8 12 -14 15l-10 6q-4 2 -6.5 5t-2.5 13zM434 610q16 -4 23 -6q20 -4 64 -8t94.5 -7t97.5 -3t71 4l2 16l-19 81l-13 54q-6 25 -15 55l-22 81l-41 139q-8 27 -17.5 64.5t-19.5 66.5 q-33 -70 -59 -135l-52 -130q-25 -65 -47 -131zM442.5 1612.5q-18.5 60.5 10 125t122.5 107.5q33 16 56.5 23.5t60.5 9.5q35 2 73 -4t73 -23q84 -43 103.5 -111.5t-10.5 -132t-100.5 -108.5t-168.5 -41q-84 4 -142.5 49t-77 105.5zM569 1661q0 -59 38 -76.5t82 -7.5t82 42 t38 75q0 29 -27.5 51t-66.5 26.5t-78 -14t-59 -69.5q-2 -6 -5.5 -13.5t-3.5 -13.5z" />
<glyph unicode="&#xc7;" horiz-adv-x="1302" d="M88 567q-6 100 15.5 214t68.5 221.5t116.5 197.5t157.5 146q61 39 119 67.5t116 41.5t119.5 11t135.5 -24q41 -12 73.5 -23.5t67.5 -38.5q53 -41 92 -101t39 -128q-16 -14 -32 -35l-33 -41q-16 -20 -32.5 -38.5t-35.5 -28.5q-41 82 -102.5 136t-153.5 68 q-127 20 -220 -40t-155 -164l-55 -99q-27 -49 -45 -102q-25 -72 -34 -160t6.5 -173t58.5 -154.5t123 -106.5q96 -43 205.5 -30.5t195.5 67.5q20 12 53 37.5t65 55.5t57.5 60.5t35.5 53.5q37 -4 66.5 -35t58.5 -51q-2 -25 -5 -41.5t-20 -34.5q-8 -27 -26.5 -53.5t-41 -51 t-47 -46t-46.5 -38.5q-141 -100 -306 -124l-6 -19l-12 -33l-10 -26q74 -2 138.5 -24.5t100.5 -96.5q10 -20 13.5 -35.5t-0.5 -38.5q-6 -53 -41 -89t-83 -58.5t-102.5 -31.5t-97.5 -9q-23 0 -43 3t-43 5q-72 6 -115 20.5t-90 36.5q2 23 1 33t14 31q10 10 19 16t28 10 q14 -6 42.5 -13t61.5 -12t63.5 -8t47.5 -3q25 0 55.5 5t57 15t45 28.5t18.5 43.5q0 27 -27.5 42t-70.5 21t-93.5 7t-93.5 -1q8 29 21.5 62t29.5 67l21 45q-96 10 -184.5 50.5t-159.5 115.5q-29 29 -46.5 57.5t-33.5 63.5l-22 44q-13 28 -23 58.5t-16.5 58.5t-2.5 44 q-6 18 -10 47.5t-6 52.5z" />
<glyph unicode="&#xc8;" horiz-adv-x="1038" d="M142 346q-1 74 3.5 154t9.5 157.5t3 135.5q0 14 2 58t5 103.5t6 127t5 126t2 101.5t-4 55q178 35 344 48t346 15q8 0 26.5 -3t37 -7t36 -9t27.5 -7q2 -20 3 -39t1 -37q-2 -12 0 -23.5t3 -22.5t-3 -22.5t-18 -21.5q-4 -2 -24 -2h-42q-23 0 -42 -1t-21 -5 q-49 -6 -99.5 -10.5t-99.5 -10.5q-63 -6 -126.5 -7t-127.5 -13q-8 -25 -12 -74t-7 -105.5t-4 -108.5t-1 -81q12 -12 49 -14t86 2t105.5 10t107.5 9t91 1t56 -14q8 -10 13.5 -31.5t6.5 -44t-2 -44t-10 -32.5q-25 -4 -91 -6l-137 -4q-71 -2 -130 -8t-72 -20l-94 -7 q2 -31 4 -85t3 -112l2 -113q1 -54 3 -85q41 2 124 15.5t172.5 21.5t165 5t104.5 -30q0 -16 6 -24t10 -31q4 -27 4 -43t-20 -43q-16 -8 -64.5 -16t-112 -16.5t-136 -16.5t-140 -13t-122 -8.5t-79.5 -3.5q-27 0 -51 7.5t-43 25.5q0 23 -7 40t-9 40q-4 23 -4 47.5t-4 46.5 q-13 49 -14 123zM362 1815q2 6 15.5 17t34 21.5t44 15.5t46.5 -1q18 -14 49 -44t62.5 -68t59 -84t42.5 -91q6 -18 -6.5 -23.5t-22.5 -15.5q-20 -16 -32.5 -16t-32.5 -8q-18 49 -53.5 84.5t-74 68.5l-75 67t-56.5 77z" />
<glyph unicode="&#xc9;" horiz-adv-x="1038" d="M142 346q1 -74 14 -123q4 -23 4 -47t4 -47q2 -23 9 -40t7 -40q18 -18 43 -25.5t51 -7.5q25 0 79.5 3.5t122 8.5t140 13t136 16.5t111.5 16.5t65 16q20 27 20 43.5t-4 42.5q-4 23 -10 31t-6 24q-29 27 -104.5 30t-165 -5t-172.5 -21.5t-124 -15.5q-2 31 -3 85l-2 113 q-1 58 -3 112.5t-4 84.5l94 7q12 14 71.5 20t130.5 8l137 4q67 2 91 6q6 10 9.5 32t2.5 44.5t-6.5 44t-13.5 31.5q-16 12 -56 14t-91 -1t-107.5 -9t-105.5 -10t-86 -2t-49 14q0 29 1 81t4 108.5t7 105.5t12 74q63 12 127 13t127 7q49 6 99.5 10.5t99.5 10.5q2 4 21.5 5 t41.5 1h42q19 0 24 2q14 10 18 21.5t3 22.5t-3 22.5t0 23.5q0 18 -1 36.5t-3 39.5q-10 2 -27.5 7t-36 9t-37 7t-26.5 3q-180 -2 -346 -15t-344 -48q4 -12 4 -55t-2 -101.5t-5 -126t-6 -127t-5 -103.5t-2 -58q2 -57 -3 -135t-9.5 -158t-3.5 -154zM362 1581q14 45 43 91t61 84 t62.5 67.5t49.5 44.5q23 6 46 1t42.5 -15.5t34 -21.5t16.5 -17q-20 -43 -56 -77t-75 -67t-74 -68.5t-53 -84.5q-20 8 -32.5 8t-33.5 16q-10 10 -22.5 15.5t-5.5 23.5h-3z" />
<glyph unicode="&#xca;" horiz-adv-x="1038" d="M142 346q1 -74 14 -123q4 -23 4 -47t4 -47q2 -23 9 -40t7 -40q18 -18 43 -25.5t51 -7.5q25 0 79.5 3.5t122 8.5t140 13t136 16.5t111.5 16.5t65 16q20 27 20 43.5t-4 42.5q-4 23 -10 31t-6 24q-29 27 -104.5 30t-165 -5t-172.5 -21.5t-124 -15.5q-2 31 -3 85l-2 113 q-1 58 -3 112.5t-4 84.5l94 7q12 14 71.5 20t130.5 8l137 4q67 2 91 6q6 10 9.5 32t2.5 44.5t-6.5 44t-13.5 31.5q-16 12 -56 14t-91 -1t-107.5 -9t-105.5 -10t-86 -2t-49 14q0 29 1 81t4 108.5t7 105.5t12 74q63 12 127 13t127 7q49 6 99.5 10.5t99.5 10.5q2 4 21.5 5 t41.5 1h42q19 0 24 2q14 10 18 21.5t3 22.5t-3 22.5t0 23.5q0 18 -1 36.5t-3 39.5q-10 2 -27.5 7t-36 9t-37 7t-26.5 3q-180 -2 -346 -15t-344 -48q4 -12 4 -55t-2 -101.5t-5 -126t-6 -127t-5 -103.5t-2 -58q2 -57 -3 -135t-9.5 -158t-3.5 -154zM270 1565q2 2 17.5 19.5 t17.5 19.5l37 49q18 25 41 47l45 45q29 29 51 45l15 12q6 2 16 17q25 -4 68 -2t65 0q16 -14 35 -36l27 -32q18 -23 32 -38l37 -38q23 -23 35 -32t35 -31q4 -4 8 -6t8 -7q4 -4 10 -11l21 -23q-37 -16 -68.5 -22.5t-60.5 -2.5q-10 2 -35 22.5t-53 47.5l-57 54q-28 28 -44 46 q-29 -23 -51 -51.5t-47 -54.5q-6 -6 -8 -13q-4 -4 -6 -7t-6 -7l-14 -17q-7 -9 -17 -20q-39 -2 -62 0q-16 2 -33.5 6.5t-58.5 20.5z" />
<glyph unicode="&#xcb;" horiz-adv-x="1038" d="M142 346q-1 74 3.5 154t9.5 157.5t3 135.5q0 14 2 58t5 103.5t6 127t5 126t2 101.5t-4 55q178 35 344 48t346 15q8 0 26.5 -3t37 -7t36 -9t27.5 -7q2 -20 3 -39t1 -37q-2 -12 0 -23.5t3 -22.5t-3 -22.5t-18 -21.5q-4 -2 -24 -2h-42q-23 0 -42 -1t-21 -5 q-49 -6 -99.5 -10.5t-99.5 -10.5q-63 -6 -126.5 -7t-127.5 -13q-8 -25 -12 -74t-7 -105.5t-4 -108.5t-1 -81q12 -12 49 -14t86 2t105.5 10t107.5 9t91 1t56 -14q8 -10 13.5 -31.5t6.5 -44t-2 -44t-10 -32.5q-25 -4 -91 -6l-137 -4q-71 -2 -130 -8t-72 -20l-94 -7 q2 -31 4 -85t3 -112l2 -113q1 -54 3 -85q41 2 124 15.5t172.5 21.5t165 5t104.5 -30q0 -16 6 -24t10 -31q4 -27 4 -43t-20 -43q-16 -8 -64.5 -16t-112 -16.5t-136 -16.5t-140 -13t-122 -8.5t-79.5 -3.5q-27 0 -51 7.5t-43 25.5q0 23 -7 40t-9 40q-4 23 -4 47.5t-4 46.5 q-13 49 -14 123zM311 1705q6 34 28.5 59.5t55.5 31.5q47 6 76 -19.5t36 -62.5t-10.5 -77t-62.5 -60q-25 -12 -41 -6t-33 16q-35 18 -45 51t-4 67zM620.5 1705q6.5 34 29 59.5t55.5 31.5q47 6 75.5 -19.5t35.5 -62.5t-10.5 -77t-62.5 -60q-25 -12 -42 -6t-31 16 q-35 18 -45.5 51t-4 67z" />
<glyph unicode="&#xcc;" horiz-adv-x="538" d="M147 154.5q0 68.5 3.5 142.5t7.5 142.5t4 117.5h2q12 178 12 361q0 66 6 131t6 131v115q0 60 13 114q31 23 52 20.5t60 -6.5q2 -4 14.5 -6t28 -4t28.5 -2t17 -2q-10 -291 -9 -576.5t-9 -576.5l-8 -223q-10 -6 -25 -13q-12 -4 -28.5 -7t-36.5 1q-6 0 -24.5 3t-39 8.5 t-39 9.5t-24.5 4q-11 47 -11 115.5zM154 1815q2 6 15 17t33.5 21.5t44 15.5t46.5 -1q18 -14 49 -44t62.5 -68t59.5 -84t44 -91h-2q6 -18 -6.5 -23.5t-22.5 -15.5q-20 -16 -32.5 -16t-32.5 -8q-18 49 -53 84.5t-74 68.5t-75 67t-56 77z" />
<glyph unicode="&#xcd;" horiz-adv-x="538" d="M147 154.5q0 -68.5 11 -115.5q6 0 24.5 -4t39 -9.5t39 -8.5t24.5 -3q20 -4 36.5 -1t28.5 7q14 6 25 13l8 223q10 291 9 576.5t9 576.5q-4 2 -17 2t-28.5 2t-28 4t-14.5 6q-39 4 -60.5 6.5t-51.5 -20.5q-12 -53 -13 -114v-115q0 -66 -6 -131.5t-6 -130.5q0 -182 -12 -361 h-2q0 -49 -4 -117.5t-7.5 -142.5t-3.5 -142.5zM154 1581q14 45 42.5 91t60.5 84t62.5 67.5t49.5 44.5q23 6 46 1t42.5 -15.5t34 -21.5t16.5 -17q-20 -43 -56 -77t-75 -67t-74 -68.5t-53 -84.5q-20 8 -32.5 8t-33.5 16q-10 10 -22 15.5t-6 23.5h-2z" />
<glyph unicode="&#xce;" horiz-adv-x="538" d="M20 1565q2 2 17.5 19.5t17.5 19.5l37 49q18 25 41 47l45 45q29 29 51 45l15 12q6 2 16 17q25 -4 68 -2t65 0q16 -14 35 -36l27 -32q18 -23 32 -38l37 -38q23 -23 35 -32t35 -31q4 -4 8 -6t8 -7l11 -11l20 -23q-37 -16 -68.5 -22.5t-60.5 -2.5q-10 2 -34.5 22.5 t-53.5 47.5l-56 54q-28 28 -44 46q-29 -23 -51.5 -51.5t-47.5 -54.5q-6 -6 -8 -13q-4 -4 -6 -7t-6 -7l-14 -17q-7 -9 -17 -20q-39 -2 -61 0q-16 2 -34 6.5t-59 20.5zM147 154.5q0 -68.5 11 -115.5q6 0 24.5 -4t39 -9.5t39 -8.5t24.5 -3q20 -4 36.5 -1t28.5 7q14 6 25 13 l8 223q10 291 9 576.5t9 576.5q-4 2 -17 2t-28.5 2t-28 4t-14.5 6q-39 4 -60.5 6.5t-51.5 -20.5q-12 -53 -13 -114v-115q0 -66 -6 -131.5t-6 -130.5q0 -182 -12 -361h-2q0 -49 -4 -117.5t-7.5 -142.5t-3.5 -142.5z" />
<glyph unicode="&#xcf;" horiz-adv-x="538" d="M69.5 1705q6.5 34 29 59.5t55.5 31.5q47 6 75.5 -19.5t35.5 -62.5t-10 -77t-62 -60q-25 -12 -41.5 -6t-32.5 16q-35 18 -45.5 51t-4 67zM147 154.5q0 68.5 3.5 142.5t7.5 142.5t4 117.5h2q12 178 12 361q0 66 6 131t6 131v115q0 60 13 114q31 23 52 20.5t60 -6.5 q2 -4 14.5 -6t28 -4t28.5 -2t17 -2q-10 -291 -9 -576.5t-9 -576.5l-8 -223q-10 -6 -25 -13q-12 -4 -28.5 -7t-36.5 1q-6 0 -24.5 3t-39 8.5t-39 9.5t-24.5 4q-11 47 -11 115.5zM379 1705q6 34 28.5 59.5t55.5 31.5q47 6 75.5 -19.5t36 -62.5t-10 -77t-62.5 -60 q-25 -12 -42.5 -6t-31.5 16q-35 18 -45 51t-4 67z" />
<glyph unicode="&#xd0;" horiz-adv-x="1376" d="M79 741.5q-3 36.5 1 89.5q6 10 30.5 15.5t59.5 9.5v91q0 52 3 108l6 109q3 54 8.5 98.5t12.5 74t15 35.5q57 23 108.5 38t101.5 24.5t103.5 12.5t114.5 3q92 0 184.5 -15.5t176.5 -54.5q80 -37 139 -101.5t97 -143t53.5 -166.5t6.5 -172q-12 -135 -62 -251t-136 -220 q-78 -92 -175.5 -163t-211.5 -110q-88 -31 -173 -40t-177 14q-4 8 -27 10t-29 8q-25 0 -37 3t-21 9t-19.5 14.5t-32.5 18.5q-18 49 -28.5 120t-13.5 151.5t-1 164.5t6 158l-58 -2q-22 23 -25 59.5zM377 688q2 -72 4 -127t4 -84q4 -53 9 -106.5t9 -106.5q66 -37 144 -26.5 t152.5 47.5t139 90t105.5 102q68 86 110 195.5t46 220.5h2q0 129 -40 203.5t-109.5 110.5t-163 40t-199.5 -10q-6 0 -30.5 -3t-53.5 -6t-52.5 -7t-27.5 -7q-8 -6 -14 -14q-10 -14 -16.5 -47t-10.5 -79t-6 -101t-2 -113q35 2 77 4t85 3t83 0t72 -5q8 -8 12.5 -32.5t4.5 -51 t-2 -48t-4 -23.5q-12 -4 -45 -7.5t-78 -5.5t-98.5 -4t-106.5 -2z" />
<glyph unicode="&#xd1;" horiz-adv-x="1331" d="M159 276.5q3 122.5 5 245.5q0 55 3 131l6 160t8 169t11.5 158.5t14.5 129t18 80.5v6l4 4q8 8 20.5 -1t18.5 -1q27 4 70 1t70 -3l241 -425l246 -421q2 27 3 61l2 67q1 32 1 57.5t-2 35.5q2 2 4 15.5t2 29.5v31v18q4 16 4 36v36q4 141 11.5 283.5t25.5 281.5q2 8 7 10.5 t11.5 2.5t13.5 2t11 10q8 0 33 3t52.5 8t53 7t35.5 0q14 -10 7 -28.5t-3 -34.5q-14 -86 -22 -171t-12 -171q-2 -27 -7.5 -51.5t-7.5 -51.5q-10 -139 -10 -280.5t-2 -282.5q-2 -47 -2 -96v-98q0 -37 2 -75t-2 -75q-33 -16 -64 -24q-47 -12 -69.5 -14.5t-50.5 -0.5v4 q-6 0 -7 -2q-33 37 -69.5 100.5t-72.5 134.5l-69 136q-33 66 -57 108l-63 111l-59 98l-52 90q-20 33 -38.5 80t-35.5 82q-2 -66 -3 -139l-2 -141q-1 -68 -1 -121v-80q2 -72 -2 -140.5t-4 -140.5q0 -29 2 -55t2 -55v-63q0 -28 -4 -52q-10 0 -30 2l-39 4q-19 2 -34 4l-16 2 q-29 0 -50 -1t-52 12q-8 125 -5 247.5zM371 1673q39 49 73.5 77t71.5 35t80 -4.5t98 -39.5q14 -8 47 -22.5t50 -14.5q29 0 51 23.5t45 52.5q29 -4 42 -12.5t21 -18.5q8 -12 12.5 -26.5l8.5 -26.5q-41 -55 -78 -81t-74 -30t-74.5 8.5t-82.5 32.5l-26 10l-32 13l-31 11 q-14 5 -22 5q-16 0 -31.5 -9t-27.5 -24l-24 -28q-11 -14 -17 -25q-41 14 -66.5 38.5t-13.5 55.5z" />
<glyph unicode="&#xd2;" horiz-adv-x="1396" d="M90 672q-2 90 17.5 189.5t60.5 193.5t102.5 173t143.5 128q31 18 82 39.5t109.5 38t117.5 22.5t108 -4q14 2 42 -1t58 -10t55.5 -15.5t37.5 -16.5q78 -53 133 -124t94 -157q16 -37 28.5 -83t21 -95t12.5 -97t4 -87q0 -135 -41 -275.5t-120 -256t-196.5 -188.5t-271.5 -73 q-86 0 -168 20.5t-155 65.5q-35 20 -62 43t-48.5 47.5t-40.5 52t-40 62.5l-2 4q-25 37 -39 88.5t-23.5 107.5t-13.5 110.5t-6 97.5zM307 715q-8 -98 5.5 -193.5t62.5 -181.5q47 -84 136 -119t183 -22q106 12 173 60t120 140q39 70 63.5 162t28.5 190.5t-13 192.5t-60 168 t-113 117t-170 41q-102 -4 -177 -53.5t-125 -128t-79 -177t-35 -196.5zM645 1815q2 6 15.5 17t34 21.5t44 15.5t45.5 -1q18 -14 49 -44t63 -68t59.5 -84t41.5 -91q6 -18 -6 -23.5t-24 -15.5q-18 -16 -31.5 -16t-34.5 -8q-18 49 -53 84.5t-74 68.5t-74 67t-55 77z" />
<glyph unicode="&#xd3;" horiz-adv-x="1396" d="M90 672q2 -43 6 -97.5t13.5 -110.5t23.5 -107.5t39 -88.5l2 -4q20 -35 39.5 -62.5t41 -52t48.5 -47t62 -43.5q74 -45 155.5 -65.5t167.5 -20.5q154 0 271.5 73t196.5 188.5t120 256t41 275.5q0 39 -4 87t-12.5 97t-20.5 95.5t-29 82.5q-39 86 -94 157t-133 124 q-12 8 -37.5 16.5t-55.5 15.5t-57.5 10t-42.5 1q-49 10 -108 4t-117.5 -22.5t-110 -38t-81.5 -39.5q-82 -49 -143.5 -128t-102.5 -173t-60.5 -193.5t-17.5 -189.5zM307 715q6 98 35 196.5t79 177t125 128t177 53.5q100 2 170 -41t113 -117t60 -168t13 -192.5t-28.5 -190.5 t-63.5 -162q-53 -92 -119.5 -140t-173.5 -60q-94 -12 -183 22.5t-136 118.5q-49 86 -62.5 181.5t-5.5 193.5zM625 1581q14 45 41.5 91t59.5 84t62.5 67.5t49.5 44.5q23 6 46 1t42.5 -15.5t34 -21.5t16.5 -17q-20 -43 -56 -77l-74 -67q-38 -33 -73 -68.5t-53 -84.5 q-20 8 -33.5 8t-32.5 16q-12 10 -24 15.5t-6 23.5z" />
<glyph unicode="&#xd4;" horiz-adv-x="1396" d="M90 672q2 -43 6 -97.5t13.5 -110.5t23.5 -107.5t39 -88.5l2 -4q20 -35 39.5 -62.5t41 -52t48.5 -47t62 -43.5q74 -45 155.5 -65.5t167.5 -20.5q154 0 271.5 73t196.5 188.5t120 256t41 275.5q0 39 -4 87t-12.5 97t-20.5 95.5t-29 82.5q-39 86 -94 157t-133 124 q-12 8 -37.5 16.5t-55.5 15.5t-57.5 10t-42.5 1q-49 10 -108 4t-117.5 -22.5t-110 -38t-81.5 -39.5q-82 -49 -143.5 -128t-102.5 -173t-60.5 -193.5t-17.5 -189.5zM307 715q6 98 35 196.5t79 177t125 128t177 53.5q100 2 170 -41t113 -117t60 -168t13 -192.5t-28.5 -190.5 t-63.5 -162q-53 -92 -119.5 -140t-173.5 -60q-94 -12 -183 22.5t-136 118.5q-49 86 -62.5 181.5t-5.5 193.5zM471 1565q2 2 17.5 19.5t17.5 19.5l37 49q18 25 41 47l44 45q28 29 50 45l14 12q6 2 17 17q27 -4 69.5 -2t65.5 0q14 -14 32.5 -36t28.5 -32q18 -23 33 -38l37 -38 q23 -23 35 -32t34 -31q4 -4 17 -13q4 -4 9 -11t20 -23q-35 -16 -68 -22.5t-59 -2.5q-10 2 -36 22.5t-55 47.5l-56 54q-28 28 -44 46q-29 -23 -50.5 -51.5t-45.5 -54.5q-4 -2 -10 -13q-4 -4 -5.5 -7t-5.5 -7q-6 -8 -14 -17.5t-18 -19.5q-39 -2 -62 0q-14 2 -32.5 6.5 t-57.5 20.5z" />
<glyph unicode="&#xd5;" horiz-adv-x="1396" d="M90 672q-2 90 17.5 189.5t60.5 193.5t102.5 173t143.5 128q31 18 82 39.5t109.5 38t117.5 22.5t108 -4q14 2 42 -1t58 -10t55.5 -15.5t37.5 -16.5q78 -53 133 -124t94 -157q16 -37 28.5 -83t21 -95t12.5 -97t4 -87q0 -135 -41 -275.5t-120 -256t-196.5 -188.5t-271.5 -73 q-86 0 -168 20.5t-155 65.5q-35 20 -62 43t-48.5 47.5t-40.5 52t-40 62.5l-2 4q-25 37 -39 88.5t-23.5 107.5t-13.5 110.5t-6 97.5zM307 715q-8 -98 5.5 -193.5t62.5 -181.5q47 -84 136 -119t183 -22q106 12 173 60t120 140q39 70 63.5 162t28.5 190.5t-13 192.5t-60 168 t-113 117t-170 41q-102 -4 -177 -53.5t-125 -128t-79 -177t-35 -196.5zM473 1673q39 49 74 77t71.5 35t79.5 -4.5t99 -39.5q14 -8 47 -22.5t49 -14.5q29 0 51.5 23.5t44.5 52.5q29 -4 42 -12.5t22 -18.5q8 -12 12 -26.5t8 -26.5q-41 -55 -78 -81t-73.5 -30t-74.5 8.5 t-83 32.5l-26 10l-31 13l-31 11q-14 5 -23 5q-16 0 -31.5 -9t-27.5 -24l-24 -28q-11 -14 -17 -25q-41 14 -66.5 38.5t-13.5 55.5z" />
<glyph unicode="&#xd6;" horiz-adv-x="1396" d="M90 672q-2 90 17.5 189.5t60.5 193.5t102.5 173t143.5 128q31 18 82 39.5t109.5 38t117.5 22.5t108 -4q14 2 42 -1t58 -10t55.5 -15.5t37.5 -16.5q78 -53 133 -124t94 -157q16 -37 28.5 -83t21 -95t12.5 -97t4 -87q0 -135 -41 -275.5t-120 -256t-196.5 -188.5t-271.5 -73 q-86 0 -168 20.5t-155 65.5q-35 20 -62 43t-48.5 47.5t-40.5 52t-40 62.5l-2 4q-25 37 -39 88.5t-23.5 107.5t-13.5 110.5t-6 97.5zM307 715q-8 -98 5.5 -193.5t62.5 -181.5q47 -84 136 -119t183 -22q106 12 173 60t120 140q39 70 63.5 162t28.5 190.5t-13 192.5t-60 168 t-113 117t-170 41q-102 -4 -177 -53.5t-125 -128t-79 -177t-35 -196.5zM536.5 1705q6.5 34 29 59.5t55.5 31.5q47 6 75.5 -19.5t35.5 -62.5t-10 -77t-63 -60q-25 -12 -41 -6t-32 16q-35 18 -45.5 51t-4 67zM846 1705q6 34 28.5 59.5t55.5 31.5q47 6 75.5 -19.5t36 -62.5 t-10 -77t-62.5 -60q-25 -12 -42.5 -6t-31.5 16q-35 18 -45 51t-4 67z" />
<glyph unicode="&#xd7;" d="M166 279q-4 14 20.5 47.5t58.5 70.5l66 70q33 33 45 47l62 68l-71 75l-66 74l-54 62q-23 27 -32 41q0 12 15 33.5t34.5 42t36 36t20.5 15.5q8 -4 32 -26l57 -54l75 -76l84 -88l84 85l80 79l65 64q29 28 45 40q12 0 31.5 -13.5t38 -30.5t31 -32.5t12.5 -17.5 q-6 -10 -30 -38l-60 -68l-83 -89l-97 -102l143 -153l80 -85q-2 -35 -26.5 -63.5t-65.5 -67.5q-16 -4 -45 18.5t-61 53.5t-59 60l-40 42l-25 24l-35 34l-83 -87l-75 -76l-58 -58q-24 -25 -31 -35q-33 -2 -58.5 19.5t-60.5 58.5z" />
<glyph unicode="&#xd8;" horiz-adv-x="1396" d="M90 672q-2 90 17.5 189.5t60.5 193.5t102.5 173t143.5 128q31 18 81 38.5t108.5 36t118.5 22.5t109 -1q23 4 68 -4t84 -21q53 90 84 115q55 14 108.5 4t71.5 -47l-57 -89q-29 -46 -57 -97q72 -78 118 -185q16 -37 28.5 -83t21 -95t12.5 -97t4 -87q0 -135 -41 -275.5 t-120 -256t-196.5 -188.5t-271.5 -73q-117 0 -225 39l-30 -60l-32 -67q-12 2 -37.5 5.5l-54 7.5t-51 11t-29.5 17q8 20 29 65l49 109q-41 35 -69.5 73t-63.5 91l-2 4q-25 37 -39 88.5t-23.5 107.5t-13.5 110.5t-6 97.5zM307 715q-8 -98 5.5 -193.5t62.5 -181.5 q12 -23 26 -39l112 229l122 247l123 243l116 219q-70 33 -151 31q-102 -4 -177 -53.5t-125 -128t-79 -177t-35 -196.5zM561 205q66 -16 133 -6q106 12 173 60t120 140q39 68 62.5 158t28.5 185.5t-11 188.5t-55 167l-114 -217l-110 -218l-103 -210l-95 -191q-6 -16 -13 -30z " />
<glyph unicode="&#xd9;" horiz-adv-x="1202" d="M117 563q0 182 6 367.5t35 365.5q29 20 65.5 23.5t71.5 13.5l51 -4q27 -2 33 -35q2 -10 -2 -44l-9 -75q-5 -42 -11.5 -80t-8.5 -57q-8 -63 -14 -153t-6 -185.5t8 -183.5t26 -147q23 -66 64 -113t94 -68.5t114.5 -16.5t123.5 42q12 6 26.5 19.5t27.5 28.5l27 30 q13 14 21 26q20 31 30.5 81.5t15.5 100.5t5 90v48l4 127q2 53 3.5 112.5t3.5 102.5q0 27 1 47.5t1 38.5v40q0 22 2 52q0 6 -1 31.5t-1 55.5t1 54.5t5 28.5l63 6q20 2 37 0q0 -2 16.5 -2t36 1t36 1t16.5 -2q4 -31 2 -59.5t-2 -59.5q0 -100 -3.5 -210.5t-9.5 -210.5 q-2 -29 1 -89.5t-4 -140.5t-30.5 -177t-76.5 -200q-51 -98 -140.5 -145t-191.5 -52t-205.5 25.5t-181.5 85.5q-47 33 -80 89.5t-54.5 122t-31.5 132t-10 121.5zM514 1815q2 6 15.5 17t34 21.5t44 15.5t45.5 -1q18 -14 49 -44t63 -68t59.5 -84t43.5 -91h-2q6 -18 -6 -23.5 t-22 -15.5q-20 -16 -32.5 -16t-33.5 -8q-18 49 -53 84.5t-74 68.5t-75 67t-56 77z" />
<glyph unicode="&#xda;" horiz-adv-x="1202" d="M117 563q0 -55 10 -121.5t31.5 -132t54.5 -122t80 -89.5q78 -55 181.5 -85.5t205.5 -25.5t191.5 52t140.5 145q53 102 76.5 199.5t30.5 177.5t4 140.5t-1 89.5q6 100 9.5 210.5t3.5 210.5q0 31 2 59.5t-2 59.5q0 2 -16.5 2t-36 -1t-36 -1t-16.5 2q-16 2 -37 0l-63 -6 q-4 -4 -5 -28.5t-1 -54.5t1 -55.5t1 -31.5q-2 -31 -2 -52v-40q0 -18 -1 -38.5t-1 -47.5q-2 -43 -3 -102.5t-4 -112.5l-4 -127v-48q0 -40 -5 -90t-15 -100.5t-31 -81.5q-8 -12 -21 -26l-27 -30q-13 -15 -27.5 -28.5t-26.5 -19.5q-61 -37 -123 -42t-115 16.5t-94 68.5t-64 113 q-18 59 -26 147t-8 183.5t6 185.5t14 153q2 18 8 56.5l12 80.5l9 75q4 34 2 44q-6 33 -33 35l-51 4q-35 -10 -72 -13t-65 -24q-29 -180 -35 -365.5t-6 -367.5zM496 1581q14 45 41.5 91t59.5 84t62.5 67.5t49.5 44.5q23 6 46 1t42.5 -15.5t34 -21.5t16.5 -17q-20 -43 -56 -77 t-75 -67t-74 -68.5t-53 -84.5q-20 8 -32.5 8t-33.5 16q-10 10 -22 15.5t-6 23.5z" />
<glyph unicode="&#xdb;" horiz-adv-x="1202" d="M117 563q0 -55 10 -121.5t31.5 -132t54.5 -122t80 -89.5q78 -55 181.5 -85.5t205.5 -25.5t191.5 52t140.5 145q53 102 76.5 199.5t30.5 177.5t4 140.5t-1 89.5q6 100 9.5 210.5t3.5 210.5q0 31 2 59.5t-2 59.5q0 2 -16.5 2t-36 -1t-36 -1t-16.5 2q-16 2 -37 0l-63 -6 q-4 -4 -5 -28.5t-1 -54.5t1 -55.5t1 -31.5q-2 -31 -2 -52v-40q0 -18 -1 -38.5t-1 -47.5q-2 -43 -3 -102.5t-4 -112.5l-4 -127v-48q0 -40 -5 -90t-15 -100.5t-31 -81.5q-8 -12 -21 -26l-27 -30q-13 -15 -27.5 -28.5t-26.5 -19.5q-61 -37 -123 -42t-115 16.5t-94 68.5t-64 113 q-18 59 -26 147t-8 183.5t6 185.5t14 153q2 18 8 56.5l12 80.5l9 75q4 34 2 44q-6 33 -33 35l-51 4q-35 -10 -72 -13t-65 -24q-29 -180 -35 -365.5t-6 -367.5zM356 1565q2 2 17.5 19.5t17.5 19.5l37 49q18 25 41 47l44 45q28 29 50 45l15 12q8 2 18 17q25 -4 68 -2t65 0 q14 -14 32.5 -36t29.5 -32q18 -23 32 -38l37 -38q23 -23 35 -32t35 -31q4 -4 16 -13q4 -4 9.5 -11t19.5 -23q-35 -16 -68 -22.5t-59 -2.5q-10 2 -35 23l-54 47q-30 27 -57.5 54.5l-44.5 45.5q-29 -23 -50 -51.5t-46 -54.5q-6 -6 -10 -13q-4 -8 -10 -14l-14 -17 q-7 -9 -19 -20q-23 -2 -35 -2t-27 2q-14 2 -31.5 6.5t-58.5 20.5z" />
<glyph unicode="&#xdc;" horiz-adv-x="1202" d="M117 563q0 182 6 367.5t35 365.5q29 20 65.5 23.5t71.5 13.5l51 -4q27 -2 33 -35q2 -10 -2 -44l-9 -75q-5 -42 -11.5 -80t-8.5 -57q-8 -63 -14 -153t-6 -185.5t8 -183.5t26 -147q23 -66 64 -113t94 -68.5t114.5 -16.5t123.5 42q12 6 26.5 19.5t27.5 28.5l27 30 q13 14 21 26q20 31 30.5 81.5t15.5 100.5t5 90v48l4 127q2 53 3.5 112.5t3.5 102.5q0 27 1 47.5t1 38.5v40q0 22 2 52q0 6 -1 31.5t-1 55.5t1 54.5t5 28.5l63 6q20 2 37 0q0 -2 16.5 -2t36 1t36 1t16.5 -2q4 -31 2 -59.5t-2 -59.5q0 -100 -3.5 -210.5t-9.5 -210.5 q-2 -29 1 -89.5t-4 -140.5t-30.5 -177t-76.5 -200q-51 -98 -140.5 -145t-191.5 -52t-205.5 25.5t-181.5 85.5q-47 33 -80 89.5t-54.5 122t-31.5 132t-10 121.5zM414 1705q6 34 28.5 59.5t55.5 31.5q47 6 75.5 -19.5t35.5 -62.5t-10 -77t-62 -60q-25 -12 -41.5 -6t-32.5 16 q-35 18 -45 51t-4 67zM723 1705q6 34 28.5 59.5t55.5 31.5q47 6 75.5 -19.5t36 -62.5t-10 -77t-62.5 -60q-25 -12 -42.5 -6t-31.5 16q-35 18 -45 51t-4 67z" />
<glyph unicode="&#xdd;" horiz-adv-x="1144" d="M18 1319q0 -29 21.5 -81t54.5 -117.5t73 -136.5l78 -135l69 -116l48 -78l58 -86q20 -113 15 -241.5t-1 -266.5l2 -61q2 -10 33 -12t68.5 0t71.5 9t44 17q4 10 5 41t0 70t-3 78t-2 67l-6 179q0 16 2 54t6 54l133 242l56 99l56 97l51 87l40 67q35 55 77 111.5t71 115.5 q-23 31 -41.5 50.5t-38 29.5t-42 15.5t-52.5 9.5q-31 -29 -81 -107l-104 -167l-99 -173l-69 -125l-32 -63q-16 -33 -39 -62h-11q-84 119 -150 244l-130 254q-14 29 -24.5 54.5t-20.5 47.5q-4 4 -17.5 0t-29.5 -8q-18 -6 -39 -12q-35 -10 -51.5 -22.5t-49.5 -22.5zM395 1581 q14 45 43 91t60.5 84t62.5 67.5t49 44.5q23 6 46.5 1t43 -15.5t34 -21.5t16.5 -17q-20 -43 -56.5 -77l-75 -67t-73.5 -68.5t-53 -84.5q-20 8 -33 8t-33 16q-10 10 -22.5 15.5t-6.5 23.5h-2z" />
<glyph unicode="&#xde;" horiz-adv-x="1052" d="M82 154.5q0 68.5 3 142.5t7 142.5t4 117.5h2q12 178 13 361q0 66 6 131t6 131v115q0 60 12 114q31 23 52.5 20.5t60.5 -6.5q2 -4 14 -6t27.5 -4t29 -2t17.5 -2q0 -39 -1 -65.5t-2 -50t-1 -50.5v-65q4 4 22.5 8t22.5 2q8 -2 13 -1t11.5 3t14.5 3t24 1q25 -2 43.5 0t38.5 2 q61 4 137 -15.5t129 -54.5q90 -59 134.5 -147t48.5 -184.5t-28 -190.5t-94.5 -169t-153.5 -118t-206 -36q-23 0 -48 2t-60 4q-23 2 -34 1t-30 9q0 -20 1 -21.5t-1 -19.5l-8 -223q-10 -6 -24 -13q-12 -4 -28.5 -7t-37.5 1q-6 0 -24.5 3t-39 8.5t-39 9.5t-24.5 4 q-10 47 -10 115.5zM324 496l2 -7q2 -4 35.5 -11t83 -8t105.5 11.5t105.5 47t81 96t33.5 161.5q0 84 -53 139.5t-126 77t-147.5 7t-117.5 -71.5v-91q0 -62 -1 -130t-1 -130v-91z" />
<glyph unicode="&#xdf;" horiz-adv-x="1064" d="M84 160l2 159q0 14 1 51.5t3 85.5t4 102t4 102.5t4 86t2 52.5q2 88 18.5 176t52.5 166t97.5 137t157.5 88q51 16 92 24.5t94 -6.5l13 2q55 -10 96 -43.5t65.5 -81t31.5 -100.5t-7 -104q-10 -37 -34.5 -63.5t-52.5 -49t-55.5 -42t-41.5 -42.5q-18 -16 -23.5 -28.5 t-1.5 -22.5t13.5 -17.5t19.5 -9.5q35 -10 85 -29.5t79 -41.5q57 -41 95 -81t58.5 -86t23.5 -101.5t-9 -125.5q-29 -160 -126 -238.5t-257 -78.5q-47 0 -87 3t-87 22q-2 25 1 59.5t7 56.5q25 6 64.5 6t83.5 3.5t87 14.5t76 40q37 33 56.5 75t23.5 87t-6 91t-33 85 q-16 27 -45 46t-62.5 33.5t-68.5 27t-61 28.5q-20 0 -25.5 9t-15.5 20q-25 23 -33 49t-8 59q0 45 29.5 80t67.5 63l72 57q34 28 42 62q4 20 2 43t-9 41q-8 25 -23 46.5t-42 27.5q-14 4 -29.5 3t-29.5 -1q-61 0 -105.5 -37t-74 -96.5t-47 -133t-27 -147t-12.5 -140.5t-3 -112 v-2l-2 2q4 -98 -1 -181t-3 -179h2v-31l-2 -2v-164q-18 -2 -34.5 -2t-35.5 8q-45 -6 -90 9q-6 25 -9 39t-4 25t-2 25.5t-1 41.5z" />
<glyph unicode="&#xe0;" horiz-adv-x="864" d="M61 221v6v29q0 55 33 98t81 74t103.5 50.5t102.5 27.5t97 8t97 8q-2 33 -1 68t-9 67q-12 45 -46 64.5t-76 20.5t-84 -11t-72 -33q-35 -23 -61.5 -52.5l-51.5 -59.5q-4 0 -15 9l-25 20l-24 22q-11 10 -16 10q37 96 115 161.5t167 88.5t178 -4t148 -115q37 -53 50.5 -129 t15.5 -158.5t-3 -163.5t-7 -143l-2 -2q0 -43 -3 -98t-3 -84q-29 -2 -55.5 -7t-55.5 -5q-10 20 -28.5 32.5t-20.5 36.5l-22 -7q-9 -3 -18 -7t-24 -8l-37 -10l-56 -13q-28 -6 -56 -6q-4 0 -4 -2q-66 0 -128.5 12.5t-115.5 59.5q-68 57 -68 145zM244 239q0 -7 4 -18 q10 -29 62 -38t111.5 -5t109 18.5t51.5 30.5q4 35 5 78t1 78q-8 6 -24.5 5t-26.5 3q-55 0 -94.5 -10t-92.5 -29q-4 -2 -10 -3t-10 -5q-25 -10 -53.5 -34.5t-32.5 -53.5v-17zM256 1284q2 6 15.5 17.5t34 21.5t44 15t45.5 -1q18 -14 49 -43.5t63 -67.5t59.5 -84t41.5 -91 q6 -18 -6 -23.5t-24 -15.5q-18 -16 -32 -16.5t-34 -8.5q-18 49 -53 85t-74 69t-74 66.5t-55 76.5z" />
<glyph unicode="&#xe1;" horiz-adv-x="864" d="M61 221q0 -88 68 -145q53 -47 115.5 -59.5t128.5 -12.5q0 2 4 2q29 0 56 6l56 13l37 10q14 4 23.5 8t18.5 7l22 7q2 -25 20.5 -37t28.5 -32q29 0 55.5 5t55.5 7q0 29 3 84t3 98l2 2q2 61 7 142.5t3 164t-15.5 158.5t-50.5 129q-59 88 -148 115t-178 4t-167 -88.5 t-115 -161.5q4 0 16 -10l24 -22l25 -20q11 -9 15 -9q25 31 51.5 60.5t61.5 51.5q31 20 72.5 32.5t83.5 11.5t76 -20.5t46 -64.5q10 -33 9 -67.5t1 -67.5q-47 -8 -97 -8t-97 -8t-102.5 -27.5t-103.5 -50.5t-81 -74t-33 -98v-29v-6zM244 239v17q4 29 32.5 53.5t53.5 34.5 q4 4 10 5t10 3q53 18 92 28.5t95 10.5q10 -4 26.5 -3t24.5 -5q0 -35 -1 -78t-5 -78q-2 -16 -51.5 -30.5t-109 -18.5t-111.5 5.5t-62 37.5q-4 11 -4 18zM256 1051q14 45 42 91t59.5 84t62.5 67.5t49 43.5q23 6 46.5 1t43 -15t33.5 -21.5t16 -17.5q-20 -43 -56 -77l-74 -66 q-38 -33 -72.5 -69t-53.5 -85q-20 8 -33.5 8t-31.5 17q-12 10 -24.5 15.5t-6.5 23.5z" />
<glyph unicode="&#xe2;" horiz-adv-x="864" d="M61 221q0 -88 68 -145q53 -47 115.5 -59.5t128.5 -12.5q0 2 4 2q29 0 56 6l56 13l37 10q14 4 23.5 8t18.5 7l22 7q2 -25 20.5 -37t28.5 -32q29 0 55.5 5t55.5 7q0 29 3 84t3 98l2 2q2 61 7 142.5t3 164t-15.5 158.5t-50.5 129q-59 88 -148 115t-178 4t-167 -88.5 t-115 -161.5q4 0 16 -10l24 -22l25 -20q11 -9 15 -9q25 31 51.5 60.5t61.5 51.5q31 20 72.5 32.5t83.5 11.5t76 -20.5t46 -64.5q10 -33 9 -67.5t1 -67.5q-47 -8 -97 -8t-97 -8t-102.5 -27.5t-103.5 -50.5t-81 -74t-33 -98v-29v-6zM143 1032q2 2 17.5 18.5t17.5 20.5l37 49 q18 25 41 47l44 45q28 29 50 45l15 11q4 4 7 6t9 10q27 -2 70 0t65 0q14 -14 32.5 -35.5t29.5 -31.5q18 -23 32 -38l37 -38q23 -23 35 -33t35 -31q4 -4 8 -7t8 -7t9 -10l20 -25q-35 -14 -67.5 -21.5t-59.5 -2.5q-10 4 -36 24.5t-54 46.5l-57 54q-28 28 -44 47 q-29 -25 -50 -52.5t-46 -54.5q-4 -4 -5 -6t-5 -6t-5 -8.5t-5 -8.5q-6 -8 -15 -16l-18 -18q-23 -2 -36 -2h-26q-14 2 -32.5 7t-57.5 21zM244 239v17q4 29 32.5 53.5t53.5 34.5q4 4 10 5t10 3q53 18 92 28.5t95 10.5q10 -4 26.5 -3t24.5 -5q0 -35 -1 -78t-5 -78 q-2 -16 -51.5 -30.5t-109 -18.5t-111.5 5.5t-62 37.5q-4 11 -4 18z" />
<glyph unicode="&#xe3;" horiz-adv-x="864" d="M61 221v6v29q0 55 33 98t81 74t103.5 50.5t102.5 27.5t97 8t97 8q-2 33 -1 68t-9 67q-12 45 -46 64.5t-76 20.5t-84 -11t-72 -33q-35 -23 -61.5 -52.5l-51.5 -59.5q-4 0 -15 9l-25 20l-24 22q-11 10 -16 10q37 96 115 161.5t167 88.5t178 -4t148 -115q37 -53 50.5 -129 t15.5 -158.5t-3 -163.5t-7 -143l-2 -2q0 -43 -3 -98t-3 -84q-29 -2 -55.5 -7t-55.5 -5q-10 20 -28.5 32.5t-20.5 36.5l-22 -7q-9 -3 -18 -7t-24 -8l-37 -10l-56 -13q-28 -6 -56 -6q-4 0 -4 -2q-66 0 -128.5 12.5t-115.5 59.5q-68 57 -68 145zM147 1090q39 49 74 76.5 t72 34.5t80 -4t98 -38q14 -8 47 -23.5t49 -15.5q29 0 51.5 23.5t45.5 52.5q29 -4 42 -11t21 -20q8 -12 12 -25l9 -28q-41 -55 -79 -80.5t-75 -30t-75 8t-83 32.5q-18 10 -55 23.5t-53 15.5q-16 0 -31.5 -9t-29 -22.5t-24 -28.5t-18.5 -24q-41 12 -65.5 37t-12.5 56zM244 239 q0 -7 4 -18q10 -29 62 -38t111.5 -5t109 18.5t51.5 30.5q4 35 5 78t1 78q-8 6 -24.5 5t-26.5 3q-55 0 -94.5 -10t-92.5 -29q-4 -2 -10 -3t-10 -5q-25 -10 -53.5 -34.5t-32.5 -53.5v-17z" />
<glyph unicode="&#xe4;" horiz-adv-x="864" d="M61 221v6v29q0 55 33 98t81 74t103.5 50.5t102.5 27.5t97 8t97 8q-2 33 -1 68t-9 67q-12 45 -46 64.5t-76 20.5t-84 -11t-72 -33q-35 -23 -61.5 -52.5l-51.5 -59.5q-4 0 -15 9l-25 20l-24 22q-11 10 -16 10q37 96 115 161.5t167 88.5t178 -4t148 -115q37 -53 50.5 -129 t15.5 -158.5t-3 -163.5t-7 -143l-2 -2q0 -43 -3 -98t-3 -84q-29 -2 -55.5 -7t-55.5 -5q-10 20 -28.5 32.5t-20.5 36.5l-22 -7q-9 -3 -18 -7t-24 -8l-37 -10l-56 -13q-28 -6 -56 -6q-4 0 -4 -2q-66 0 -128.5 12.5t-115.5 59.5q-68 57 -68 145zM211 1169.5q6 32.5 28.5 59 t55.5 31.5q47 8 75.5 -17.5t36 -63.5t-10 -78t-62.5 -61q-25 -10 -41.5 -5t-32.5 16q-35 18 -45 52t-4 66.5zM244 239q0 -7 4 -18q10 -29 62 -38t111.5 -5t109 18.5t51.5 30.5q4 35 5 78t1 78q-8 6 -24.5 5t-26.5 3q-55 0 -94.5 -10t-92.5 -29q-4 -2 -10 -3t-10 -5 q-25 -10 -53.5 -34.5t-32.5 -53.5v-17zM520 1169.5q6 32.5 28.5 59t55.5 31.5q47 8 76 -17.5t36 -63.5t-10.5 -78t-62.5 -61q-25 -10 -42 -5t-32 16q-35 18 -45 52t-4 66.5z" />
<glyph unicode="&#xe5;" horiz-adv-x="864" d="M61 221v6v29q0 55 33 98t81 74t103.5 50.5t102.5 27.5t97 8t97 8q-2 33 -1 68t-9 67q-12 45 -46 64.5t-76 20.5t-84 -11t-72 -33q-35 -23 -61.5 -52.5l-51.5 -59.5q-4 0 -15 9l-25 20l-24 22q-11 10 -16 10q37 96 115 161.5t167 88.5t178 -4t148 -115q37 -53 50.5 -129 t15.5 -158.5t-3 -163.5t-7 -143l-2 -2q0 -43 -3 -98t-3 -84q-29 -2 -55.5 -7t-55.5 -5q-10 20 -28.5 32.5t-20.5 36.5l-22 -7q-9 -3 -18 -7t-24 -8l-37 -10l-56 -13q-28 -6 -56 -6q-4 0 -4 -2q-66 0 -128.5 12.5t-115.5 59.5q-68 57 -68 145zM231.5 1072.5 q-18.5 60.5 10 126t123.5 108.5q33 16 56 23t60 9q35 2 73 -4t73 -22q84 -43 103.5 -111.5t-10.5 -132t-100.5 -109t-168.5 -40.5q-84 2 -142.5 47t-77 105.5zM244 239q0 -7 4 -18q10 -29 62 -38t111.5 -5t109 18.5t51.5 30.5q4 35 5 78t1 78q-8 6 -24.5 5t-26.5 3 q-55 0 -94.5 -10t-92.5 -29q-4 -2 -10 -3t-10 -5q-25 -10 -53.5 -34.5t-32.5 -53.5v-17zM358 1120q0 -59 38 -76.5t82 -6t82 43t38 74.5q0 29 -27.5 51.5t-66.5 26.5t-78 -14.5t-59 -69.5q-2 -6 -5.5 -13.5t-3.5 -15.5z" />
<glyph unicode="&#xe6;" horiz-adv-x="1472" d="M61 221v6v29q0 55 33 98t81 74t103.5 50.5t102.5 27.5t97 8t97 8q-2 33 -1 68t-9 67q-12 45 -46 64.5t-76 20.5t-84 -11t-72 -33q-35 -23 -61.5 -52.5l-51.5 -59.5q-4 0 -15 9l-25 20l-24 22q-11 10 -16 10q37 96 115 161.5t167 88.5t178 -4t148 -115l13 -20 q55 70 138 115t170 54t168 -23t134 -116q20 -33 32.5 -70.5t14.5 -76.5q2 -20 4 -45t-2 -45q-10 -45 -24 -84q-6 -16 -37 -27.5t-68 -17.5t-71.5 -9t-49.5 -5q-82 -8 -162.5 -11.5t-162.5 -5.5l-13 -8q-6 -23 0 -45q6 -53 39 -86t76 -51.5t92 -25.5t90 -7q33 4 58.5 10 t52.5 21.5t58.5 43t76.5 74.5q4 2 18.5 -16t29.5 -42l29 -45q13 -22 15 -26q-4 -12 -20.5 -27.5t-26.5 -23.5q-8 -8 -24.5 -22.5t-26.5 -20.5q-80 -49 -167 -71.5t-170 -19.5t-157.5 34t-130.5 92q-23 -14 -50 -35.5t-58 -36.5l-22 -7q-9 -3 -18 -7t-24 -8l-37 -10l-56 -13 q-28 -6 -56 -6q-4 0 -4 -2q-66 0 -128.5 12.5t-115.5 59.5q-68 57 -68 145zM244 239q0 -7 4 -18q10 -29 62 -38t111.5 -5t109 18.5t51.5 30.5q4 35 5 78t1 78q-8 6 -24.5 5t-26.5 3q-55 0 -94.5 -10t-92.5 -29q-4 -2 -10 -3t-10 -5q-25 -10 -53.5 -34.5t-32.5 -53.5v-17z M788 545q10 -12 27 -17q2 -2 32 -1t72 3t91 5.5t92 5.5t74.5 5t37.5 5q8 6 11.5 16.5t3.5 20.5q4 27 -4 62.5t-23 58.5q-39 66 -104.5 78t-132 -16t-118 -87t-59.5 -139z" />
<glyph unicode="&#xe7;" horiz-adv-x="890" d="M64.5 386q11.5 77 52.5 152.5t116 143.5q156 137 367 143q41 2 81 -3t77 -23q12 -18 14 -34.5t0 -33t-8 -35t-8 -39.5q-6 -25 -20.5 -29.5t-33 -1.5t-38 9t-35.5 2q-16 6 -49 2t-50 4q-78 -10 -137 -50t-96 -94.5t-49 -115.5t4 -112.5t64.5 -85t129.5 -33.5 q96 0 178.5 50t149.5 111q29 -12 46.5 -33.5t21.5 -74.5q-6 -23 -27.5 -47.5t-48.5 -46t-55.5 -39t-48.5 -27.5q-33 -16 -65 -28.5t-62 -22.5l-11 -31q-8 -16 -14 -33l-10 -26q74 -2 139.5 -24.5t99.5 -96.5q10 -20 13.5 -35.5t1.5 -38.5q-6 -53 -42 -89t-84 -58.5 t-101.5 -31.5t-96.5 -9q-23 0 -44 3t-44 5q-72 6 -115 20.5t-90 36.5q4 23 3 33t14 31q10 10 19 16t28 10q14 -6 42.5 -13t61.5 -12t63.5 -8t47.5 -3q25 0 55.5 5t57 15t45 28.5t18.5 43.5q0 27 -27.5 42t-70.5 21t-93.5 7t-93.5 -1q8 29 20.5 62t28.5 67l21 45 q-80 6 -143.5 42t-104.5 92.5t-58.5 128t-6 148.5z" />
<glyph unicode="&#xe8;" horiz-adv-x="985" d="M63 395q0 90 31 170t86 150t138 116t171.5 55t169 -23t134.5 -115q20 -33 32.5 -71t14.5 -77q2 -20 4 -45t-2 -45q-10 -45 -25 -84q-6 -16 -36.5 -27.5t-67.5 -17.5t-72 -9t-49 -5q-82 -8 -163 -11.5t-163 -5.5l-12 -8q-6 -23 0 -45q6 -53 39 -86t76 -51.5t92 -25.5 t90 -7q33 4 58.5 10t52 21.5t58.5 43t77 74.5q4 2 18 -16t30 -42l28 -45q13 -22 16 -26q-4 -12 -20.5 -27.5t-26.5 -23.5q-8 -8 -24.5 -22.5t-26.5 -20.5q-115 -70 -242 -87t-235.5 23t-179.5 140t-71 266zM256 504q10 -12 27 -17q4 -2 32.5 -1t70.5 3.5l91 5.5t92 5t75 5 t38 5q8 6 11 16.5t3 20.5q4 27 -4 62.5t-22 58.5q-39 66 -104.5 78t-132 -16t-118 -87t-59.5 -139zM315 1284q2 6 15.5 17.5t34 21.5t44 15t46.5 -1q18 -14 49 -43.5t62.5 -67.5t59 -84t42.5 -91q6 -18 -6.5 -23.5t-22.5 -15.5q-20 -16 -32.5 -16.5t-33.5 -8.5 q-18 49 -53 85t-73.5 69l-75 66.5t-56.5 76.5z" />
<glyph unicode="&#xe9;" horiz-adv-x="985" d="M63 395q0 -166 71 -266t179.5 -140t235.5 -22.5t242 86.5q10 6 26.5 20.5t24.5 22.5q10 8 26.5 23.5t20.5 27.5q-2 4 -16 26l-28 45q-15 24 -29.5 42.5t-18.5 15.5q-45 -47 -77 -74.5t-58.5 -43t-52 -21.5t-58.5 -10q-41 0 -90 7t-92 25.5t-76 51.5t-39 86q-6 23 0 45 l12 8q82 2 163 5t163 12q14 2 49 5t72 9t67.5 17.5t36.5 27.5q14 39 25 84q4 20 2 45t-4 45q-2 39 -14.5 77t-32.5 71q-53 84 -134 115.5t-169.5 22.5t-171 -55.5t-138.5 -115.5q-55 -70 -86 -150t-31 -170zM256 504q8 80 59.5 139t118 87t132 15.5t104.5 -77.5 q14 -23 22 -59t4 -62q0 -10 -3 -20.5t-11 -16.5q-6 -2 -38 -5t-75 -5t-92 -5l-91 -5.5t-70.5 -3.5t-32.5 1q-17 5 -27 17zM315 1051q14 45 43 91t61 84t62.5 67.5t48.5 43.5q23 6 46.5 1t43 -15t34 -21.5t16.5 -17.5q-20 -43 -56 -76.5l-75 -66.5t-74 -69t-53 -85 q-20 8 -32.5 8t-33.5 17q-10 10 -22.5 15t-6.5 24h-2z" />
<glyph unicode="&#xea;" horiz-adv-x="985" d="M63 395q0 -166 71 -266t179.5 -140t235.5 -22.5t242 86.5q10 6 26.5 20.5t24.5 22.5q10 8 26.5 23.5t20.5 27.5q-2 4 -16 26l-28 45q-15 24 -29.5 42.5t-18.5 15.5q-45 -47 -77 -74.5t-58.5 -43t-52 -21.5t-58.5 -10q-41 0 -90 7t-92 25.5t-76 51.5t-39 86q-6 23 0 45 l12 8q82 2 163 5t163 12q14 2 49 5t72 9t67.5 17.5t36.5 27.5q14 39 25 84q4 20 2 45t-4 45q-2 39 -14.5 77t-32.5 71q-53 84 -134 115.5t-169.5 22.5t-171 -55.5t-138.5 -115.5q-55 -70 -86 -150t-31 -170zM207 1032q2 2 17.5 18.5t17.5 20.5l37 49q18 25 40 47l45 45 q28 29 50 45l14 11q4 4 8 6t10 10q25 -2 68 0t66 0q14 -14 33.5 -35.5t27.5 -31.5q18 -23 33 -38l37 -38q23 -23 35 -33t34 -31q4 -4 8.5 -7t8.5 -7t9 -10l19 -25q-35 -14 -67.5 -21.5t-59.5 -2.5q-10 4 -34 24l-55 47q-30 27 -57.5 54.5t-43.5 46.5q-29 -25 -50.5 -52.5 t-45.5 -54.5q-2 -4 -4 -6t-5 -6q-4 -4 -12 -17q-6 -8 -13 -16t-18 -18q-23 -2 -35 -2h-28q-14 2 -31.5 7t-58.5 21zM256 504q8 80 59.5 139t118 87t132 15.5t104.5 -77.5q14 -23 22 -59t4 -62q0 -10 -3 -20.5t-11 -16.5q-6 -2 -38 -5t-75 -5t-92 -5l-91 -5.5t-70.5 -3.5 t-32.5 1q-17 5 -27 17z" />
<glyph unicode="&#xeb;" horiz-adv-x="985" d="M63 395q0 90 31 170t86 150t138 116t171.5 55t169 -23t134.5 -115q20 -33 32.5 -71t14.5 -77q2 -20 4 -45t-2 -45q-10 -45 -25 -84q-6 -16 -36.5 -27.5t-67.5 -17.5t-72 -9t-49 -5q-82 -8 -163 -11.5t-163 -5.5l-12 -8q-6 -23 0 -45q6 -53 39 -86t76 -51.5t92 -25.5 t90 -7q33 4 58.5 10t52 21.5t58.5 43t77 74.5q4 2 18 -16t30 -42l28 -45q13 -22 16 -26q-4 -12 -20.5 -27.5t-26.5 -23.5q-8 -8 -24.5 -22.5t-26.5 -20.5q-115 -70 -242 -87t-235.5 23t-179.5 140t-71 266zM252 1169.5q6 32.5 28.5 59t55.5 31.5q47 8 75.5 -17.5t36 -63.5 t-10 -78t-62.5 -61q-25 -10 -41.5 -5t-32.5 16q-35 18 -45 52t-4 66.5zM256 504q10 -12 27 -17q4 -2 32.5 -1t70.5 3.5l91 5.5t92 5t75 5t38 5q8 6 11 16.5t3 20.5q4 27 -4 62.5t-22 58.5q-39 66 -104.5 78t-132 -16t-118 -87t-59.5 -139zM561 1169.5q6 32.5 28.5 59 t55.5 31.5q47 8 76 -17.5t36 -63.5t-10.5 -78t-62.5 -61q-25 -10 -42 -5t-32 16q-35 18 -45 52t-4 66.5z" />
<glyph unicode="&#xec;" horiz-adv-x="405" d="M27 1243q2 6 15 17.5t33.5 21.5t44 15.5t46.5 -1.5q18 -14 49 -43.5t62.5 -67.5t59.5 -84t42 -91q6 -18 -6.5 -23.5t-24.5 -15.5q-18 -16 -31.5 -16.5t-33.5 -8.5q-18 49 -53 85t-74 69t-74 66.5t-55 76.5zM109 27q0 18 1 68t3 118t3 142.5t3 141t2 115.5v66q0 18 2 50 t4 44q12 0 44 4t44 0q20 -2 40.5 -8t37.5 -8q4 -18 6 -72.5t2 -126.5t-1 -152.5t-3 -153.5t-4 -127t-4 -73q-2 -18 -27.5 -25t-56.5 -8.5t-59.5 2t-36.5 3.5z" />
<glyph unicode="&#xed;" horiz-adv-x="405" d="M27 1010q14 45 41.5 91t59.5 84t62.5 67.5t49.5 43.5q23 6 46 1t42.5 -15t34 -21.5t16.5 -17.5q-20 -43 -56 -77l-74 -66q-38 -33 -73 -69t-53 -85q-20 8 -33.5 8t-32.5 17q-12 10 -24 15.5t-6 23.5zM109 27q8 0 36.5 -3.5t59.5 -2t56.5 8.5t27.5 25t4 72.5t4 127.5 t3 153.5t1 152.5t-2 126t-6 73q-16 2 -36.5 8t-41.5 8q-12 4 -44 0t-44 -4q-2 -12 -4 -44t-2 -50v-66q0 -49 -2 -115.5t-3 -141t-3 -142.5t-3 -118t-1 -68z" />
<glyph unicode="&#xee;" horiz-adv-x="405" d="M-66 991q2 2 17.5 18.5t17.5 20.5l37 49q18 25 41 47l44 45q28 29 50 46l15 10q4 4 7 6t9 10q27 -2 70 0t65 0q14 -14 32.5 -35.5t29.5 -31.5q18 -23 32 -38l37 -38q23 -23 35 -33t35 -31q4 -4 8 -7t8 -7l10 -10l19 -25q-35 -14 -67.5 -21.5t-59.5 -2.5q-10 4 -35.5 24.5 t-54.5 46.5l-56 55q-28 28 -44 46q-29 -25 -50.5 -52.5t-46.5 -54.5q-4 -4 -5 -6t-5 -6t-5 -8t-5 -9q-6 -8 -15 -16l-18 -18q-23 -2 -36 -2h-25q-14 2 -33 7t-58 21zM109 27q8 0 36.5 -3.5t59.5 -2t56.5 8.5t27.5 25t4 72.5t4 127.5t3 153.5t1 152.5t-2 126t-6 73 q-16 2 -36.5 8t-41.5 8q-12 4 -44 0t-44 -4q-2 -12 -4 -44t-2 -50v-66q0 -49 -2 -115.5t-3 -141t-3 -142.5t-3 -118t-1 -68z" />
<glyph unicode="&#xef;" horiz-adv-x="405" d="M-38 1128.5q7 32.5 29.5 59t55.5 31.5q47 8 76 -17.5t36 -63.5t-10.5 -78t-62.5 -61q-27 -10 -43 -5t-33 16q-33 18 -44 52t-4 66.5zM109 27q0 18 1 68t3 118t3 142.5t3 141t2 115.5v66q0 18 2 50t4 44q12 0 44 4t44 0q20 -2 40.5 -8t37.5 -8q4 -18 6 -72.5t2 -126.5 t-1 -152.5t-3 -153.5t-4 -127t-4 -73q-2 -18 -27.5 -25t-56.5 -8.5t-59.5 2t-36.5 3.5zM270 1128.5q6 32.5 29 59t57 31.5q47 8 76 -17.5t36 -63.5t-10.5 -78t-62.5 -61q-27 -10 -43 -5t-33 16q-35 18 -45 52t-4 66.5z" />
<glyph unicode="&#xf1;" horiz-adv-x="888" d="M96 441q0 91 1 170t4 132.5t10 59.5q2 4 12 6t22.5 3t22.5 1t16 2q10 8 26.5 4t27.5 -4q10 -29 15 -62.5t5 -68.5q53 59 124 103t141.5 53.5t134 -25.5t102.5 -133q39 -96 42 -202.5t1 -209.5q0 -20 -1 -54t-5 -68.5t-10.5 -67.5t-16.5 -51l-29 -4q-14 -2 -26 -7 q-55 -16 -103 11q4 145 13 293q2 43 0 89t-9 89q-16 100 -64 132t-102.5 18.5t-100.5 -59.5t-58 -99q-25 -104 -28 -211t-3 -211v-50q-16 0 -40.5 -2t-49.5 -2t-44.5 7.5t-27.5 25.5v77q0 60 -1 142t-1 173zM147 1090q39 49 74 76.5t72 34.5t80 -4t98 -38q14 -8 47 -23.5 t49 -15.5q29 0 51.5 23.5t45.5 52.5q29 -4 42 -11t21 -20q8 -12 12 -25l9 -28q-41 -55 -79 -80.5t-75 -30t-75 8t-83 32.5q-18 10 -55 23.5t-53 15.5q-16 0 -31.5 -9t-29 -22.5t-24 -28.5t-18.5 -24q-41 12 -65.5 37t-12.5 56z" />
<glyph unicode="&#xf2;" horiz-adv-x="980" d="M60 388q-3 83 23 163t79 149.5t135 118.5l50.5 29.5t55.5 25.5q23 8 47.5 11.5t45.5 5.5q61 4 125.5 -8.5t117.5 -48.5q88 -59 133.5 -147.5t49.5 -183.5t-28 -190.5t-94.5 -169t-153.5 -117.5t-206 -38q-47 2 -92 18q-94 33 -156.5 91.5t-95.5 133t-36 157.5zM231 420 q0 -41 6.5 -81t26.5 -75q37 -63 116 -80.5t161 12t143 105.5t61 197q0 66 -28.5 116t-74.5 78.5t-103.5 34.5t-112.5 -16.5t-102.5 -73.5t-73.5 -137l-12 -40q-7 -20 -7 -40zM313 1284q2 6 15.5 17.5t34 21.5t44 15t46.5 -1q18 -14 48.5 -43.5t62.5 -67.5t59.5 -84t42.5 -91 q6 -18 -6.5 -23.5t-22.5 -15.5q-20 -16 -32.5 -16.5t-33.5 -8.5q-18 49 -53 85t-73.5 69l-75 66.5t-56.5 76.5z" />
<glyph unicode="&#xf3;" horiz-adv-x="980" d="M60 388q3 -83 36 -157.5t95.5 -133t156.5 -91.5q45 -16 92 -18q115 -6 206 38t153.5 117.5t94.5 169t28 190.5t-49.5 183t-133.5 148q-53 37 -117.5 49t-125.5 8q-20 -2 -45 -5t-48 -12q-29 -10 -56.5 -25t-49.5 -30q-82 -49 -135 -118.5t-79 -149.5t-23 -163zM231 420 q0 20 7 40l12 40q27 86 74 137t102 73.5t112.5 16.5t103.5 -34.5t74.5 -79t28.5 -115.5q0 -121 -61 -197t-143 -105.5t-161 -12t-116 80.5q-20 35 -26.5 75t-6.5 81zM313 1051q14 45 43 91t61 84t62.5 67.5t48.5 43.5q23 6 46.5 1t43 -15t34 -21.5t16.5 -17.5 q-20 -43 -56.5 -76.5l-75 -66.5t-73.5 -69t-53 -85q-20 8 -32.5 8t-33.5 17q-10 10 -22.5 15t-6.5 24h-2z" />
<glyph unicode="&#xf4;" horiz-adv-x="980" d="M60 388q3 -83 36 -157.5t95.5 -133t156.5 -91.5q45 -16 92 -18q115 -6 206 38t153.5 117.5t94.5 169t28 190.5t-49.5 183t-133.5 148q-53 37 -117.5 49t-125.5 8q-20 -2 -45 -5t-48 -12q-29 -10 -56.5 -25t-49.5 -30q-82 -49 -135 -118.5t-79 -149.5t-23 -163zM221 1032 q2 2 17.5 18.5t17.5 20.5l37 49q18 25 41 47l45 45q29 29 51 45l14 11q4 4 7.5 6t9.5 10q25 -2 67.5 0t65.5 0q16 -14 35 -36l26 -31q18 -23 33 -38l37 -38q23 -23 35 -33t35 -31q6 -4 16 -14l10 -10q6 -6 21 -25q-37 -14 -69 -21.5t-60 -2.5q-10 4 -35 24.5t-53 46.5 l-57 54q-28 28 -44 47q-29 -25 -51 -52.5t-47 -54.5q-2 -4 -4 -6t-4 -6q-4 -4 -12 -17q-6 -8 -13.5 -16l-17.5 -18q-23 -2 -36 -2h-26q-16 2 -33.5 7t-58.5 21zM231 420q0 20 7 40l12 40q27 86 74 137t102 73.5t112.5 16.5t103.5 -34.5t74.5 -79t28.5 -115.5 q0 -121 -61 -197t-143 -105.5t-161 -12t-116 80.5q-20 35 -26.5 75t-6.5 81z" />
<glyph unicode="&#xf5;" horiz-adv-x="980" d="M60 388q-3 83 23 163t79 149.5t135 118.5l50.5 29.5t55.5 25.5q23 8 47.5 11.5t45.5 5.5q61 4 125.5 -8.5t117.5 -48.5q88 -59 133.5 -147.5t49.5 -183.5t-28 -190.5t-94.5 -169t-153.5 -117.5t-206 -38q-47 2 -92 18q-94 33 -156.5 91.5t-95.5 133t-36 157.5zM209 1130 q39 49 73.5 77t71.5 35t80 -4t98 -38q14 -8 47 -23.5t50 -15.5q29 0 51 23.5t45 52.5q29 -4 42 -11t21 -20q8 -12 13 -25l8 -28q-41 -55 -79 -80.5t-75 -30t-74.5 8t-82.5 32.5q-18 10 -55 23.5t-54 15.5q-16 0 -31.5 -9t-29 -22.5t-23.5 -28.5t-18 -24q-41 12 -65.5 36.5 t-12.5 55.5zM231 420q0 -41 6.5 -81t26.5 -75q37 -63 116 -80.5t161 12t143 105.5t61 197q0 66 -28.5 116t-74.5 78.5t-103.5 34.5t-112.5 -16.5t-102.5 -73.5t-73.5 -137l-12 -40q-7 -20 -7 -40z" />
<glyph unicode="&#xf6;" horiz-adv-x="980" d="M60 388q-3 83 23 163t79 149.5t135 118.5l50.5 29.5t55.5 25.5q23 8 47.5 11.5t45.5 5.5q61 4 125.5 -8.5t117.5 -48.5q88 -59 133.5 -147.5t49.5 -183.5t-28 -190.5t-94.5 -169t-153.5 -117.5t-206 -38q-47 2 -92 18q-94 33 -156.5 91.5t-95.5 133t-36 157.5zM231 420 q0 -41 6.5 -81t26.5 -75q37 -63 116 -80.5t161 12t143 105.5t61 197q0 66 -28.5 116t-74.5 78.5t-103.5 34.5t-112.5 -16.5t-102.5 -73.5t-73.5 -137l-12 -40q-7 -20 -7 -40zM270 1169.5q6 32.5 29 59t55 31.5q47 8 76 -17.5t36 -63.5t-10.5 -78t-62.5 -61q-25 -10 -41 -5 t-33 16q-35 18 -45 52t-4 66.5zM579.5 1169.5q6.5 32.5 29 59t55.5 31.5q47 8 75.5 -17.5t35.5 -63.5t-10 -78t-63 -61q-25 -10 -42 -5t-31 16q-35 18 -45.5 52t-4 66.5z" />
<glyph unicode="&#xf7;" d="M79 568q-3 36 1 89q8 14 47 20.5t86 8.5t90 2h62q23 0 71.5 1t111.5 1h131q69 0 130 -1t110.5 -4t71.5 -5q8 -8 12.5 -32.5t4.5 -51.5t-2 -48.5t-5 -23.5q-14 -4 -80.5 -7t-158.5 -4t-198.5 -2t-201.5 -1h-164h-94q-22 22 -25 58zM436 330q8 35 34 62.5t65 33.5 q55 8 87.5 -19.5t41 -67.5t-12 -82t-71.5 -64q-31 -12 -50.5 -5t-35.5 15q-39 20 -52.5 56t-5.5 71zM446.5 910q8.5 36 34 63.5t64.5 34.5q55 8 89 -18.5t41 -67.5t-12.5 -84t-72.5 -66q-29 -12 -49.5 -5t-36.5 15q-39 20 -52.5 56t-5 72z" />
<glyph unicode="&#xf8;" horiz-adv-x="980" d="M62.5 453.5q11.5 105.5 71 204t163.5 161.5l50.5 29.5t55.5 25.5q23 8 47.5 11.5t45.5 5.5q88 6 170 -21q23 35 42 59.5t29 33.5q41 10 78 2.5t49 -29.5q-23 -31 -44 -64l-44 -67q76 -63 111 -151.5t35 -180.5t-34 -182t-97.5 -159t-151.5 -109.5t-199 -34.5 q-47 2 -92 18l-12 4q-6 2 -10 4l-28 -48l-30 -56q-8 2 -27.5 3t-39 4t-35.5 8t-21 12l26 52q17 36 46 87q-90 70 -128 171t-26.5 206.5zM231 420q0 -41 6.5 -81t26.5 -75q10 -18 31 -39l65 123l71 128l72 127l68 118q-43 10 -91 4t-91 -32.5t-80 -74t-59 -118.5l-12 -40 q-7 -20 -7 -40zM416 178q55 -4 113.5 14.5t106.5 58.5t78.5 101.5t30.5 145.5q0 96 -61 157l-140 -246z" />
<glyph unicode="&#xf9;" horiz-adv-x="911" d="M103 379.5q1 105.5 6 210.5q0 20 3 54t7 69t12 67.5t19 50.5q12 2 27.5 3.5t27.5 5.5q29 10 54.5 5t47.5 -16q-4 -74 -10 -147l-12 -145q-4 -43 -3 -90.5t7 -90.5q8 -68 32.5 -103.5t58.5 -46.5t71.5 -2t71.5 31.5t58.5 55.5t34.5 69q29 104 33 210l8 210v49q16 0 41 2.5 t49.5 1t45 -8.5t26.5 -25q0 -16 -1 -76.5t-3 -142.5t-4 -173.5t-5 -170t-8 -132t-12 -59.5q-8 -6 -35.5 -7t-39.5 -3q-10 -8 -25.5 -4t-28.5 4q-16 61 -16 131q-55 -59 -127 -101t-142.5 -50.5t-133 27.5t-99.5 134t-36 203.5zM299 1284q2 6 15.5 17.5t34 21.5t44 15 t45.5 -1q18 -14 49 -43.5t63 -67.5t59.5 -84t43.5 -91h-2q6 -18 -6 -23.5t-22 -15.5q-20 -16 -32.5 -16.5t-33.5 -8.5q-18 49 -53 85t-74 69l-75 66.5t-56 76.5z" />
<glyph unicode="&#xfa;" horiz-adv-x="911" d="M103 379.5q-1 -105.5 36 -203.5t99.5 -134t133 -27.5t142.5 50t127 101.5q0 -70 16 -131q12 0 27.5 -4t26.5 4q12 2 39.5 3t35.5 7q6 6 11.5 59.5t8.5 132t5 170t4 173.5t3 142t1 77q-6 18 -26.5 25t-45 8.5t-49 -1t-41.5 -2.5v-49l-8 -210q-4 -105 -33 -210 q-10 -37 -34.5 -69.5t-58.5 -55t-71.5 -31.5t-71.5 2t-58.5 47t-32.5 103q-6 43 -7 90.5t3 90.5l12 145q6 74 10 147q-23 10 -48.5 15.5t-53.5 -4.5q-12 -4 -27.5 -5t-27.5 -4q-10 -18 -18.5 -50.5t-12.5 -67.5t-7 -69t-3 -54q-5 -105 -6 -210.5zM301 1051q14 45 42 91 t59.5 84t62.5 67.5t49 43.5q23 6 46.5 1t43 -15t33.5 -21.5t16 -17.5q-20 -43 -56 -76.5l-75 -66.5t-73.5 -69t-53.5 -85q-20 8 -32.5 8t-32.5 17q-10 10 -22.5 15.5t-6.5 23.5z" />
<glyph unicode="&#xfb;" horiz-adv-x="911" d="M103 379.5q-1 -105.5 36 -203.5t99.5 -134t133 -27.5t142.5 50t127 101.5q0 -70 16 -131q12 0 27.5 -4t26.5 4q12 2 39.5 3t35.5 7q6 6 11.5 59.5t8.5 132t5 170t4 173.5t3 142t1 77q-6 18 -26.5 25t-45 8.5t-49 -1t-41.5 -2.5v-49l-8 -210q-4 -105 -33 -210 q-10 -37 -34.5 -69.5t-58.5 -55t-71.5 -31.5t-71.5 2t-58.5 47t-32.5 103q-6 43 -7 90.5t3 90.5l12 145q6 74 10 147q-23 10 -48.5 15.5t-53.5 -4.5q-12 -4 -27.5 -5t-27.5 -4q-10 -18 -18.5 -50.5t-12.5 -67.5t-7 -69t-3 -54q-5 -105 -6 -210.5zM186 1032q2 2 17.5 18.5 t17.5 20.5l37 49q18 25 41 47l44 45q28 29 50 45l15 11q4 4 8 6t10 10q25 -2 68 0t65 0q14 -14 33.5 -35.5l28.5 -31.5q18 -23 32 -38l37 -38q23 -23 35 -33t35 -31q4 -4 8 -7t8 -7t9 -10l20 -25q-35 -14 -67.5 -21.5t-59.5 -2.5q-10 4 -35 24l-54 47q-30 27 -57.5 54.5 t-44.5 46.5q-29 -25 -50 -52.5t-46 -54.5q-2 -4 -4 -6t-4 -6q-4 -4 -12 -17q-6 -8 -13.5 -16l-17.5 -18q-23 -2 -36 -2h-28q-14 2 -31.5 7t-58.5 21z" />
<glyph unicode="&#xfc;" horiz-adv-x="911" d="M103 379.5q1 105.5 6 210.5q0 20 3 54t7 69t12 67.5t19 50.5q12 2 27.5 3.5t27.5 5.5q29 10 54.5 5t47.5 -16q-4 -74 -10 -147l-12 -145q-4 -43 -3 -90.5t7 -90.5q8 -68 32.5 -103.5t58.5 -46.5t71.5 -2t71.5 31.5t58.5 55.5t34.5 69q29 104 33 210l8 210v49q16 0 41 2.5 t49.5 1t45 -8.5t26.5 -25q0 -16 -1 -76.5t-3 -142.5t-4 -173.5t-5 -170t-8 -132t-12 -59.5q-8 -6 -35.5 -7t-39.5 -3q-10 -8 -25.5 -4t-28.5 4q-16 61 -16 131q-55 -59 -127 -101t-142.5 -50.5t-133 27.5t-99.5 134t-36 203.5zM250 1169.5q6 32.5 28.5 59t55.5 31.5 q47 8 76.5 -17.5t37 -63.5t-11 -78t-63.5 -61q-25 -10 -41.5 -5t-32.5 16q-35 18 -45 52t-4 66.5zM559 1169.5q6 32.5 28.5 59t55.5 31.5q47 8 76 -17.5t36 -63.5t-10.5 -78t-62.5 -61q-25 -10 -41 -5t-33 16q-35 18 -45 52t-4 66.5z" />
<glyph unicode="&#xfd;" horiz-adv-x="860" d="M47 813q4 -31 19.5 -82t37.5 -114l50 -131q27 -69 54 -130l51 -112q24 -51 40 -78l25 -43q12 -23 18 -45q-6 -18 -18.5 -49t-27.5 -64t-31.5 -62.5t-26.5 -43.5q-39 -55 -73 -111.5t-85 -101.5l20 -52l51 -48q22 -22 62 -21q20 12 45 47t49 77l47 82l35 62 q100 164 173 343l147 356q39 90 80.5 175t70.5 177q-6 25 -27.5 35t-48 12t-54.5 -3t-44 -14q-66 -152 -123 -306t-127 -306q-55 92 -102 213t-74 225q-2 8 -7 31l-11 48q-6 26 -12.5 46.5t-10.5 22.5q-4 4 -27.5 -1t-52.5 -12l-55 -15q-27 -7 -37 -7zM256 1051q14 45 42 91 t59.5 84t62.5 67.5t49 43.5q23 6 46.5 1t43 -15t33.5 -21.5t16 -17.5q-20 -43 -56 -77l-74 -66q-38 -33 -72.5 -69t-53.5 -85q-20 8 -33.5 8t-31.5 17q-12 10 -24.5 15.5t-6.5 23.5z" />
<glyph unicode="&#xfe;" horiz-adv-x="978" d="M92 1204v47l23.5 7.5t43 9.5t58.5 6t68 -2v-59v-98v-119q0 -62 1 -117.5t3 -97.5t6 -56q8 10 39 32.5t57 39.5q47 27 88 33t90 16l6 -2q70 -14 119 -30.5t103 -72.5q104 -109 104 -254q0 -111 -46 -188.5t-128 -146.5q-35 -29 -85 -59t-105.5 -48t-109.5 -22.5t-99 18.5 q-16 0 -25.5 10t-26.5 12q0 -68 -2 -136t-6 -136l6 -184q-23 -6 -35 -11.5t-23 -6.5t-24.5 1t-33.5 11q-4 2 -23.5 8t-21.5 8q-6 6 -7 23v868v63q0 25 -1 46.5t-1 46.5v63q0 8 -1 47t-3 95.5t-3 120t-3 119.5t-2 95zM281 298q2 -52 4 -73q61 -33 139 -12q57 14 111.5 35.5 t96.5 54.5t67.5 81t25.5 118q0 74 -51 109.5t-120 41.5t-138.5 -15.5t-106.5 -59.5q-14 -14 -20 -63.5t-8 -107t0 -109.5z" />
<glyph unicode="&#xff;" horiz-adv-x="860" d="M47 813q10 0 37 7l55 15q29 7 52.5 12t27.5 1q4 -2 10.5 -22.5t12.5 -46.5l11 -48q5 -23 7 -31q27 -104 74 -225t102 -213q70 152 127.5 306.5t122.5 305.5q16 8 44 13.5t54.5 3.5t48 -12.5t27.5 -34.5q-29 -92 -70.5 -177t-80.5 -175l-147 -356q-73 -179 -173 -343 l-35 -62l-47 -82q-25 -42 -49.5 -77t-44.5 -47q-41 0 -62 21l-51 48l-20 52q51 45 85 101t73 112q10 14 26.5 43.5t31.5 62.5t27.5 63.5t18.5 49.5q-6 23 -18 45l-25 43q-16 27 -40 78l-51 112q-28 61 -54 130l-50 131q-23 62 -38 113.5t-19 82.5zM188.5 1169.5 q6.5 32.5 29 59t54.5 31.5q47 8 77 -17.5t37 -63.5t-11.5 -78t-63.5 -61q-25 -10 -41 -5t-32 16q-35 18 -45.5 52t-4 66.5zM498 1169.5q6 32.5 28.5 59t55.5 31.5q47 8 75.5 -17.5t35.5 -63.5t-10 -78t-62 -61q-25 -10 -41.5 -5t-32.5 16q-35 18 -45 52t-4 66.5z" />
<glyph unicode="&#x152;" horiz-adv-x="1902" d="M68 618q12 129 62 240t136 209q78 88 175.5 154.5t211.5 103.5q88 29 188.5 39t194.5 12q90 8 172 17.5t162 16.5t161 12t171 5q8 0 26.5 -3t37 -7t36 -9t27.5 -7q2 -20 3 -39t1 -37q-2 -12 0 -23.5t3 -22.5t-3 -22.5t-18 -21.5q-4 -2 -24 -2h-42q-23 0 -42 -1t-21 -5 q-49 -6 -99.5 -10.5t-99.5 -10.5q-63 -6 -127 -7t-127 -13q-8 -25 -13.5 -79t-7.5 -114v-90q0 -45 -2 -88q14 -12 52 -13t87.5 3t104.5 10t105.5 9t89.5 1t55 -14q8 -10 13 -31.5t6 -44t-2 -44t-9 -32.5q-25 -4 -91 -6l-137 -4q-71 -2 -130.5 -8t-71.5 -20l-84 -7v-4 q2 -33 0 -93t-2 -130q-2 -51 0 -95t4 -73q41 2 124 15.5t172 21.5t165 5t104 -30q0 -16 6.5 -24t10.5 -31q4 -27 4 -43t-21 -43q-16 -8 -64 -16t-111.5 -16.5t-136.5 -16.5t-140.5 -13t-121.5 -8.5t-79 -3.5q-20 0 -63 -2t-78 0q-39 0 -65 -3l-51 -6q-26 -3 -55.5 -5 t-74.5 -2q-92 0 -184 15.5t-176 49.5q-80 35 -139.5 96.5t-97.5 137.5t-53 158.5t-7 162.5zM266 528q0 -123 40 -193.5t109.5 -105t163 -38t199.5 9.5q6 0 31 3t53.5 6t52 6t27.5 5q8 6 14 15q14 25 25 100q-2 70 3 150.5t7 156.5q2 92 -2 169t-6 112q-4 51 -9 100t-9 100 q-66 37 -144 28t-153.5 -45t-140 -86t-103.5 -97q-70 -82 -111 -186.5t-45 -209.5h-2z" />
<glyph unicode="&#x153;" horiz-adv-x="1638" d="M60 388q-3 83 23 163t79 149.5t135 118.5l50.5 29.5t55.5 25.5q23 8 47.5 11.5t45.5 5.5q61 4 125.5 -8.5t117.5 -48.5q72 -47 117 -119q55 70 138 116t171 55t169 -23t134 -115q20 -33 32.5 -71t15.5 -77q2 -20 4 -45t-2 -45q-10 -45 -25 -84q-6 -16 -37 -27.5 t-67.5 -17.5t-71.5 -9t-49 -5q-82 -8 -163 -11.5t-163 -5.5l-12 -8q-6 -23 0 -45q6 -53 38.5 -86t75.5 -51.5t92.5 -25.5t90.5 -7q33 4 58.5 10t52 21.5t58 43t77.5 74.5q4 2 18 -16t30 -42l28 -45q13 -22 16 -26q-4 -12 -21.5 -27.5t-25.5 -23.5t-24.5 -22.5t-27.5 -20.5 q-88 -53 -184 -76.5t-187 -12.5t-168 55t-126 126q-63 -76 -153.5 -119.5t-207.5 -37.5q-47 2 -92 18q-94 33 -156.5 91.5t-95.5 133t-36 157.5zM231 420q0 -41 6.5 -81t26.5 -75q23 -41 65 -62.5t91 -24.5t102 12.5t98.5 49t78 85t42.5 120.5q2 6 2 17q2 10 2 18v19 q0 66 -28.5 116t-74.5 78.5t-103.5 34.5t-112.5 -16.5t-102.5 -73.5t-73.5 -137l-12 -40q-7 -20 -7 -40zM932 504q10 -12 26 -17q2 -2 32 -1t72 3.5l91 5.5t92 5t75 5t38 5q8 6 11 16.5t3 20.5q4 27 -4 62.5t-22 58.5q-39 66 -104.5 78t-132.5 -16t-118 -87t-59 -139z" />
<glyph unicode="&#x160;" horiz-adv-x="1214" d="M80 186.5q-2 -28.5 4 -51.5q78 -51 165 -88t181 -41q111 -4 236 18.5t228 80t163.5 151.5t40.5 233q-8 53 -18.5 92.5t-53.5 75.5q-33 31 -89 54.5t-118.5 42t-123 31t-103.5 18.5q-37 6 -72 22.5t-62.5 41t-47 57t-23.5 69.5q27 84 85 134.5t132 75t156 27.5t160 -5 q29 -4 55 -10.5t55 -6.5h-2q23 20 28 47t15 43q4 25 3 53.5t-5 53.5q-74 35 -167 44t-191.5 -6.5t-192.5 -54t-168 -97t-119 -136.5t-45 -170q0 -94 27 -154.5t72 -98.5t103 -59.5t123 -37.5l131 -35q67 -18 126 -49q37 -18 71.5 -49t39.5 -76q6 -72 -42.5 -115t-117 -67.5 t-142 -32.5t-122.5 -6q-47 0 -87 15.5t-76 37t-70 46.5l-64 50q-20 -23 -37 -50.5t-28 -58t-13 -59zM397 1794q37 14 69 21.5t60 3.5q10 -4 35 -24.5t53 -47.5l57 -54q28 -28 44 -46q29 25 50 52t46 54q4 4 5 6t5 6t6 7.5t7 7.5q8 18 30 37q39 2 62 0q14 0 32.5 -5.5 t57.5 -21.5q-2 -2 -17.5 -18.5t-17.5 -20.5q-16 -25 -34.5 -49.5t-41.5 -46.5l-20 -21l-26 -25l-26 -25l-24 -19l-14 -13q-4 -2 -17 -14q-27 2 -68.5 0t-64.5 0q-16 14 -34.5 35.5l-28.5 32.5q-18 23 -33 38l-37 37q-23 23 -35 32t-35 32l-7 7l-7 7l-10 10q-7 7 -21 25z" />
<glyph unicode="&#x161;" horiz-adv-x="868" d="M59 72q61 -35 125 -58.5t135 -27.5q45 -2 102.5 4t115 19.5t110.5 38t92 59t56.5 83t5.5 109.5q-8 39 -15.5 62.5t-42.5 48.5q-18 14 -51 28.5t-75 27.5t-89 22.5t-94 15.5q-18 2 -38.5 10t-40 20.5t-33 30t-15.5 37.5l2 4q23 47 64 74t89 39t99 13t96 -3q23 -2 44.5 -6 t41.5 -2q4 0 5.5 10t3.5 22l4 21q2 10 6 14q4 23 14 38.5t2 37.5q-10 6 -28.5 12.5t-28.5 10.5q-47 14 -108.5 15t-127 -12t-129 -38t-113.5 -61.5t-81 -85t-31 -107.5q0 -92 44 -137t107.5 -67.5t136.5 -35t128 -36.5q16 -8 40.5 -24.5t24.5 -41.5q2 -55 -72.5 -89 t-203.5 -30q-20 0 -46 8.5t-51.5 21.5t-48 29.5t-36.5 30.5l-31 25q-16 -16 -26.5 -39t-16.5 -48.5t-10.5 -50t-10.5 -42.5zM186 1260q37 14 69 21t60 3q10 -4 35 -24.5t53 -47.5l57 -53q28 -27 44 -45q29 23 50 50.5t46 56.5q4 2 5 4t5 6t6 8t7 8q8 14 30 37q23 0 36 1 t26 -1q14 -2 32.5 -7t57.5 -22l-17.5 -18l-17.5 -18l-35 -51q-18 -26 -41 -48l-45 -45q-29 -29 -51 -45l-14 -10q-4 -4 -7.5 -6t-9.5 -10q-27 2 -68.5 -0.5t-64.5 0.5q-16 16 -34.5 36.5t-28.5 30.5l-33 39q-14 16 -37 39l-35 30.5l-35 30.5l-14 15q-4 4 -10 11z" />
<glyph unicode="&#x178;" horiz-adv-x="1144" d="M18 1319q33 10 49.5 22.5t51.5 22.5l39 12q16 4 29.5 8.5t17.5 -0.5l20.5 -48t24.5 -54l130 -254q67 -125 150 -244h11q23 29 39 62l32 63l69 125l99 173l104 167q50 78 81 107q31 -4 53 -9.5t41.5 -15.5t38 -29.5t41.5 -50.5q-29 -59 -71 -115.5t-77 -111.5l-40 -67 l-51 -87l-56 -97l-56 -99l-133 -242q-4 -16 -6 -54t-2 -54l6 -179q0 -29 2 -67.5t3 -77.5t0 -69.5t-5 -41.5q-10 -10 -44 -17t-71.5 -9t-68.5 0t-33 12l-2 61q-4 137 1 266.5t-15 241.5l-58 86l-48 78l-69 116l-78 135q-40 71 -73 136.5t-54.5 117.5t-21.5 81zM311 1705 q6 34 28.5 59.5t55.5 31.5q47 6 76 -19.5t36 -62.5t-10.5 -77t-62.5 -60q-25 -12 -41 -6t-33 16q-35 18 -45 51t-4 67zM620.5 1705q6.5 34 29 59.5t55.5 31.5q47 6 75.5 -19.5t35.5 -62.5t-10.5 -77t-62.5 -60q-25 -12 -42 -6t-31 16q-35 18 -45.5 51t-4 67z" />
<glyph unicode="&#x2c6;" horiz-adv-x="667" d="M25 1223q2 2 17 18t17 19l37 51q18 25 41 47l44 45q28 29 50 45l15 10q4 4 7 6t9 11q27 -2 70 0t65 0q14 -14 33 -36t29 -32q18 -23 33 -38l36 -38q23 -23 35 -33l35 -30q4 -4 8 -7.5t8 -7.5t9.5 -11t19.5 -23q-35 -14 -67.5 -21.5t-59.5 -3.5q-10 4 -35.5 24.5 t-54.5 47.5l-56 54l-44 44q-29 -23 -50.5 -50.5t-46.5 -53.5q-4 -4 -5 -6.5t-5 -6.5t-5 -8t-5 -8q-6 -8 -14.5 -17.5t-18.5 -19.5q-23 0 -36 -1t-25 1q-14 2 -32.5 7.5t-57.5 21.5z" />
<glyph unicode="&#x2dc;" horiz-adv-x="667" d="M31 1329q39 49 74.5 77t72.5 35t80 -4.5t98 -39.5q14 -6 46 -21.5t49 -15.5q29 0 52 23.5t44 52.5q29 -4 43 -12.5t22 -18.5q8 -12 12.5 -26.5l8.5 -26.5q-43 -55 -80 -81t-74 -30t-74.5 8.5t-82.5 32.5l-26 10l-32 13l-31 11q-14 5 -22 5q-16 0 -30.5 -9t-28 -22.5 t-24.5 -28.5l-17 -24q-41 12 -65.5 36.5t-14.5 55.5z" />
<glyph unicode="&#x2000;" horiz-adv-x="966" />
<glyph unicode="&#x2001;" horiz-adv-x="1933" />
<glyph unicode="&#x2002;" horiz-adv-x="966" />
<glyph unicode="&#x2003;" horiz-adv-x="1933" />
<glyph unicode="&#x2004;" horiz-adv-x="643" />
<glyph unicode="&#x2005;" horiz-adv-x="483" />
<glyph unicode="&#x2006;" horiz-adv-x="321" />
<glyph unicode="&#x2007;" horiz-adv-x="321" />
<glyph unicode="&#x2008;" horiz-adv-x="241" />
<glyph unicode="&#x2009;" horiz-adv-x="385" />
<glyph unicode="&#x200a;" horiz-adv-x="106" />
<glyph unicode="&#x2010;" horiz-adv-x="802" d="M79 618.5q-3 36.5 1 90.5q8 14 47 20t86 7t90 1h62q35 0 77 2l88 4q45 2 87 1t77 -5q8 -8 12.5 -32.5t4.5 -51t-2 -48t-4 -23.5q-14 -4 -59.5 -8.5t-105 -6.5t-127 -4t-129 -3t-109.5 -2t-71 -1q-22 23 -25 59.5z" />
<glyph unicode="&#x2011;" horiz-adv-x="802" d="M79 618.5q-3 36.5 1 90.5q8 14 47 20t86 7t90 1h62q35 0 77 2l88 4q45 2 87 1t77 -5q8 -8 12.5 -32.5t4.5 -51t-2 -48t-4 -23.5q-14 -4 -59.5 -8.5t-105 -6.5t-127 -4t-129 -3t-109.5 -2t-71 -1q-22 23 -25 59.5z" />
<glyph unicode="&#x2012;" horiz-adv-x="802" d="M79 618.5q-3 36.5 1 90.5q8 14 47 20t86 7t90 1h62q35 0 77 2l88 4q45 2 87 1t77 -5q8 -8 12.5 -32.5t4.5 -51t-2 -48t-4 -23.5q-14 -4 -59.5 -8.5t-105 -6.5t-127 -4t-129 -3t-109.5 -2t-71 -1q-22 23 -25 59.5z" />
<glyph unicode="&#x2013;" horiz-adv-x="1298" d="M79 568q-3 36 1 89q8 14 47 20.5t86 8.5t90 2h62q23 0 87 1t149 1h180q95 0 180.5 -1t149 -4t85.5 -5q8 -8 12 -32.5t4 -51.5t-2 -48.5t-4 -23.5q-14 -4 -96 -7t-196.5 -4t-248 -2t-249.5 -1h-203h-109q-22 22 -25 58z" />
<glyph unicode="&#x2014;" horiz-adv-x="1587" d="M79 568q-3 36 1 89q6 8 43 14.5t89 9.5t113.5 5t115.5 2h96h53q23 0 93.5 1t164.5 1h200q105 0 199 -1t164 -4t92 -5q8 -8 12.5 -32.5t4.5 -51.5t-2 -48.5t-5 -23.5q-12 -4 -74.5 -6t-158.5 -4t-216 -2t-245 -1t-246 -1h-220h-166h-83q-22 22 -25 58z" />
<glyph unicode="&#x2018;" horiz-adv-x="401" d="M76 1522q4 4 21.5 11t39 12t44 4t40.5 -13q12 -18 30.5 -61t35 -95.5t27 -110t8.5 -102.5q-2 -16 -14.5 -18t-28.5 -8q-23 -10 -34.5 -6t-31.5 0q0 49 -20.5 99t-45.5 99l-46 97q-21 47 -25 92z" />
<glyph unicode="&#x2019;" horiz-adv-x="401" d="M76 1167q-2 45 8 102.5t26.5 110t35 95.5t30.5 61q18 12 41 13t44.5 -4t38.5 -12t22 -11q-4 -45 -26 -92l-46 -97q-25 -49 -45.5 -99t-20.5 -99q-18 4 -30.5 -0.5t-34.5 6.5q-16 6 -28.5 8t-14.5 18z" />
<glyph unicode="&#x201a;" horiz-adv-x="499" d="M53 -131q23 23 42.5 76t34.5 112l30 111q14 51 26 70q16 12 43 13t51.5 -4t45 -12.5t24.5 -11.5q16 -43 -4 -100t-54 -114.5t-72 -104.5l-56 -68q-20 4 -32.5 0t-35.5 6q-14 6 -34.5 10.5t-8.5 16.5z" />
<glyph unicode="&#x201c;" horiz-adv-x="729" d="M76 1522q4 4 21.5 11t39 12t44 4t40.5 -13q12 -18 30.5 -61t35 -95.5t27 -110t8.5 -102.5q-2 -16 -14.5 -18t-28.5 -8q-23 -10 -34.5 -6t-31.5 0q0 49 -20.5 99t-45.5 99l-46 97q-21 47 -25 92zM406 1522q4 4 21 11t38.5 12t44 4t41.5 -13q12 -18 30.5 -61t35 -95.5 t26.5 -110t8 -102.5q0 -16 -13 -18t-30 -8q-23 -10 -34 -6t-31 0q0 49 -20.5 99t-45.5 99l-46 97q-21 47 -25 92z" />
<glyph unicode="&#x201d;" horiz-adv-x="729" d="M76 1167q-2 45 8 102.5t26.5 110t35 95.5t30.5 61q18 12 41 13t44.5 -4t38.5 -12t22 -11q-4 -45 -26 -92l-46 -97q-25 -49 -45.5 -99t-20.5 -99q-18 4 -30.5 -0.5t-34.5 6.5q-16 6 -28.5 8t-14.5 18zM406 1167q-2 45 8 102.5t27.5 110t36 95.5t30.5 61q16 12 38.5 13 t44 -4t39 -12t21.5 -11q-4 -45 -25 -92l-46 -97q-25 -49 -45.5 -99t-20.5 -99q-18 4 -30.5 -0.5t-34.5 6.5q-16 6 -28.5 8t-14.5 18z" />
<glyph unicode="&#x201e;" horiz-adv-x="813" d="M53 -131q23 23 42.5 76t34.5 112l30 111q14 51 26 70q16 12 43 13t51.5 -4t45 -12.5t24.5 -11.5q16 -43 -4 -100t-54 -114.5t-72 -104.5l-56 -68q-20 4 -32.5 0t-35.5 6q-14 6 -34.5 10.5t-8.5 16.5zM422 -131q23 23 42 76t35 112l29 111q14 51 27 70q16 12 43 13 t51.5 -4t45 -12.5t24.5 -11.5q16 -43 -4.5 -100t-54 -114.5t-71.5 -104.5t-57 -68q-20 4 -32.5 0t-34.5 6q-14 6 -34.5 10.5t-8.5 16.5z" />
<glyph unicode="&#x2022;" horiz-adv-x="724" d="M129 631q0 98 68 166t165 67q96 0 164 -67q68 -68 68 -166q0 -96 -68 -164t-164 -68q-98 0 -165 68q-68 72 -68 164z" />
<glyph unicode="&#x2026;" horiz-adv-x="1445" d="M129 152.5q8 35.5 33.5 63.5t64.5 34q55 8 89 -19.5t41.5 -67.5t-12 -82t-73.5 -65q-29 -12 -49 -6t-37 17q-39 20 -52 55t-5 70.5zM600 152.5q8 35.5 33.5 63.5t64.5 34q55 8 89 -19.5t41.5 -67.5t-12 -82t-73.5 -65q-29 -12 -49 -6t-37 17q-39 20 -52 55t-5 70.5z M1071 152.5q8 35.5 33.5 63.5t64.5 34q55 8 89 -19.5t41.5 -67.5t-12 -82t-73.5 -65q-29 -12 -49 -6t-37 17q-39 20 -52 55t-5 70.5z" />
<glyph unicode="&#x202f;" horiz-adv-x="385" />
<glyph unicode="&#x2030;" horiz-adv-x="2189" d="M73 1007.5q-3 110.5 39 218t126 173.5q16 14 35.5 26.5t39.5 22.5q33 16 64 16q43 4 87 -7t83 -46q61 -55 92 -134t35 -166t-18.5 -173t-66.5 -152.5t-107.5 -106.5t-143.5 -34q-16 2 -31.5 7t-32.5 12q-98 43 -148 138t-53 205.5zM223 1036q0 -35 4 -71.5t15 -67.5 q23 -59 70.5 -74.5t96 11t85 95t36.5 179.5q0 90 -36.5 146.5t-87 63.5t-99.5 -42t-74 -166q-4 -16 -7 -36t-3 -38zM338 16q12 31 45 105l79 176l102 223l117 245l120 243q59 119 112.5 215t95.5 161.5t66 85.5q55 14 108.5 4t71.5 -47q-166 -256 -293 -528l-264 -547 l-38 -74l-40 -82l-49 -98l-59 -123q-12 2 -39 5.5t-54.5 7.5t-51 11t-29.5 17zM880 344q-3 111 39 218.5t125 172.5q16 14 36 27.5t38 21.5q37 16 64 17q43 4 88 -7.5t84 -45.5q61 -53 92 -133t35 -166.5t-18.5 -172.5t-66.5 -152.5t-107.5 -106.5t-143.5 -33q-29 2 -64 16 q-98 43 -148 138t-53 206zM1028 373q0 -35 5 -72t16 -68q23 -59 70.5 -74.5t96 11.5t85 95.5t36.5 178.5q0 90 -37.5 146.5t-87 64t-99.5 -42t-75 -166.5q-4 -16 -7 -34.5t-3 -38.5zM1514.5 344q-3.5 111 38.5 218.5t126 172.5q16 14 36 27.5t38 21.5q37 16 64 17 q43 4 88 -7.5t84 -45.5q61 -53 91.5 -133t35 -166.5t-18 -172.5t-66.5 -152.5t-107.5 -106.5t-143.5 -33q-29 2 -64 16q-98 43 -148 138t-53.5 206zM1663 373q0 -35 5 -72t15 -68q23 -59 71 -74.5t96 11.5t85 95.5t37 178.5q0 90 -38 146.5t-87 64t-99 -42t-75 -166.5 q-4 -16 -7 -34.5t-3 -38.5z" />
<glyph unicode="&#x2039;" horiz-adv-x="526" d="M76 487q14 29 34 62l40 64l40 61l35 49q27 37 50.5 77t52.5 74q10 2 21 4.5t22 2.5h-2q18 0 51 -6.5t41 -26.5q-6 -31 -33 -82t-60.5 -105.5t-68.5 -102.5l-55 -75l50 -79l75 -115l96 -148q-8 -2 -28.5 -13t-24.5 -15l-78 -2q-25 45 -66 97t-69 93q-31 43 -70 89t-53 97z " />
<glyph unicode="&#x203a;" horiz-adv-x="526" d="M76 141l96 148l74 115q35 56 51 79q-23 27 -57.5 75t-68.5 102.5t-60.5 105.5t-32.5 82q8 20 41 26.5t51 6.5h-2q10 0 21.5 -2t21.5 -5q29 -35 52.5 -74.5t49.5 -76.5l35 -49l41 -61l41 -64q20 -33 35 -62q-16 -51 -54 -97t-69 -89q-29 -41 -71 -93t-66 -97l-76 2 q-6 4 -26.5 15t-26.5 13z" />
<glyph unicode="&#x205f;" horiz-adv-x="483" />
<glyph unicode="&#x2122;" horiz-adv-x="1388" d="M51 1290v33q10 14 40 21.5t66 10.5t68.5 4t50.5 1q25 0 62 2t76 3t76.5 1t64.5 -2q12 -8 18.5 -26.5t7.5 -39t-4.5 -38t-13.5 -21.5q-16 -4 -66 -7l-112 -7q-2 -66 -3 -145t-1 -138v-90q0 -45 4 -90q2 -20 1 -47t-7 -45q-10 -4 -31.5 -10.5t-34.5 -8.5q-23 -8 -45 2.5 t-26 20.5q-12 25 -16.5 94.5t-2.5 153.5t5 165.5t8 131.5q-49 -2 -89.5 -2t-62.5 -3q-23 16 -28 33.5t-5 42.5zM600 664q-2 72 2 133l8 121q2 39 6.5 101t10.5 128.5t14 124t18 84.5q12 6 31 9t37 3t33.5 -1t21.5 -3q23 -16 27 -43t14 -49l65 -169q32 -83 70 -165l48 111 l47 108l33 74l34 72l16.5 38t18.5 37q12 8 32.5 10.5t41 -1t38 -11.5t25.5 -22q6 -6 7 -14.5t1 -12.5v-8v-6q0 -23 -1 -36l-2 -26q-1 -12 -1 -26v-35q2 -12 2 -46v-46q4 -68 11.5 -136.5t13.5 -136.5q2 -25 2 -41t4 -41q2 -16 5 -35.5t3 -48.5l-21 -8l-24 -8q-25 -4 -41 -4 t-41 4q-23 53 -24.5 96t-7.5 99q0 6 -1 32.5t-6 57.5q-2 29 -3 54.5t-5 35.5q2 8 1 14t-1 15q-27 -68 -57 -134l-62 -131q-6 -12 -13 -28.5t-17 -26.5q-6 -4 -11.5 -4t-11.5 -2t-13 -2t-15 -2q-25 -2 -37.5 -2t-20.5 6t-14 18.5l-17 36.5q-41 86 -75 182q-8 18 -15.5 38 t-13.5 42q-4 -45 -6 -80.5t-2 -48.5q-2 -35 -5 -67.5t-5 -67.5v-55v-29q-2 -8 -2 -16t-5 -25q-18 0 -35.5 1t-35.5 3h-4h-35q-10 1 -35 11z" />
<glyph unicode="&#xe000;" horiz-adv-x="880" d="M0 880h880v-880h-880v880z" />
<glyph horiz-adv-x="0" />
<glyph horiz-adv-x="911" d="M80 -494q0 18 2 94t4 180.5t5 223.5t6 223.5t4 178t1 90.5q0 18 2 50t5 44q2 20 4 54t7 69t12 67.5t18 50.5q12 2 27.5 3.5t27.5 5.5q29 10 54.5 5t47.5 -16q-4 -74 -10 -147l-12 -145q-4 -43 -3 -90.5t7 -90.5q8 -68 32.5 -103.5t58.5 -46.5t71.5 -2t71.5 31.5 t58.5 55.5t34.5 69q29 104 33 210l8 210v49q16 0 41 2.5t49.5 1t45 -8.5t26.5 -25q0 -25 -2 -78t-5 -111.5t-7 -114t-10 -81.5q-6 -31 -7.5 -84.5t3 -113.5t17.5 -117.5t36 -98.5q-4 -4 -19.5 -7t-34 -6t-35 -4t-22.5 -1q-23 14 -40 38.5t-28.5 50t-17.5 51t-6 44.5 q-37 -41 -82 -74t-93 -52.5t-97.5 -25.5t-92.5 11l-4 -169q-2 -83 -4 -149.5t-4 -113t-4 -58.5q-2 -18 -27.5 -25.5t-56.5 -8.5t-59.5 2t-36.5 3z" />
</font>
</defs>
</svg>
